Игра на выживание / Gone (Эйтор Далия / Heitor Dhalia) [2012 г., триллер, драма, DVDRip] DUB

Ответить на тему
 

vadmin ®

Стаж: 7 лет

Сообщений: 70

Симпатии: 13

--Игра на выживание / Gone-«Никто ей не верит. Ничто её не остановит.»- Год выпуска: 2012
Страна: США
Жанр: триллер, драма
Продолжительность: 01:30:56
Перевод: профессиональный (полное дублирование)-Режиссер: Эйтор Далия / Heitor Dhalia
Продюссер: Дэн Абрамс, Сидни Киммел, Гари Лучези
Сценарий: Эллисон Барнетт-Премьера в мире: 21 февраля 2012-В ролях: Аманда Сайфред, Дэниел Сунджата, Дженнифер Карпентер, Себастиан Стэн, Уэс Бентли, Ник Сирси, Сократис Отто, Эмили Уикершем, Джоэль Мур, Кэтрин Менниг-Описание: Джилл Пэрриш однажды приходит домой и не находит сестру. Джилл уверена, что серийный убийца, который похищал ее пару лет назад, вернулся, чтобы довести начатое до логического завершения. А начнет он с ее сестры. Полиция не воспринимает ее всерьез, говоря, что девушка объявится, когда нагуляется. Единственный выход — вступить в схватку с маньяком и разобраться с этим раз и навсегда.- PG-13 - Детям до 13 лет просмотр не желателен- 
-Качество: DVDRip
Формат: AVI
Видео кодек: XviD
Аудио кодек: MP3
Видео: 688x288 (2.39:1), 25 fps, XviD build 50 ~1001 kbps avg, 0.20 bit/pixel
Аудио: 48 kHz, MPEG Layer 3, 2 ch, ~128.00 kbps avg-

MI

General
Complete name                    : D:\****\Igra.na.vujivanie.2012.DVDRip.avi
Format                           : AVI
Format/Info                      : Audio Video Interleave
File size                        : 741 MiB
Duration                         : 1h 30mn
Overall bit rate                 : 1 140 Kbps
Writing application              : VirtualDubMod 1.5.10.2 (build 2540/release)
Writing library                  : VirtualDubMod build 2540/release
Video
ID                               : 0
Format                           : MPEG-4 Visual
Format profile                   : Advanced [email protected]
Format settings, BVOP            : Yes
Format settings, QPel            : No
Format settings, GMC             : No warppoints
Format settings, Matrix          : Custom
Codec ID                         : XVID
Codec ID/Hint                    : XviD
Duration                         : 1h 30mn
Bit rate                         : 1 002 Kbps
Width                            : 688 pixels
Height                           : 288 pixels
Display aspect ratio             : 2.35:1
Frame rate                       : 25.000 fps
Color space                      : YUV
Chroma subsampling               : 4:2:0
Bit depth                        : 8 bits
Scan type                        : Progressive
Bits/(Pixel*Frame)               : 0.202
Stream size                      : 652 MiB (88%)
Writing library                  : XviD 1.2.1 (UTC 2008-12-04)
Audio
ID                               : 1
Format                           : MPEG Audio
Format version                   : Version 1
Format profile                   : Layer 3
Mode                             : Joint stereo
Mode extension                   : MS Stereo
Codec ID                         : 55
Codec ID/Hint                    : MP3
Duration                         : 1h 30mn
Bit rate mode                    : Constant
Bit rate                         : 128 Kbps
Channel(s)                       : 2 channels
Sampling rate                    : 48.0 KHz
Stream size                      : 83.3 MiB (11%)
Alignment                        : Aligned on interleaves
Interleave, duration             : 40 ms (1.00 video frame)
Interleave, preload duration     : 504 ms
Writing library                  : LAME3.99r
Encoding settings                : -m j -V 4 -q 2 -lowpass 17 -b 128

Скриншоты


Создавать темы 24-Мар-2012 17:48

[Профиль]  [ЛС] 

Shavkat_sh

Стаж: 5 лет 6 месяцев

Сообщений: 26

Симпатии: 1

Ждём HD =)))

Создавать темы 24-Мар-2012 23:22

[Профиль]  [ЛС] 

SoB

Стаж: 5 лет 7 месяцев

Сообщений: 11

фильм нормальный стоит качать ???скриншоты вроде нормальные , а размер маленький подозрительно !!!!

Создавать темы 24-Мар-2012 23:34

[Профиль]  [ЛС] 

vadmin ®

Стаж: 7 лет

Сообщений: 70

Симпатии: 13

фильм нормальный стоит качать ???скриншоты вроде нормальные , а размер маленький подозрительно !!!!
Расскажи, пожалуйста, что ты знаешь о качестве видео.
Если бы ты знал о качестве видео что либо, ты бы не писал сюда чушь.

Создавать темы 25-Мар-2012 00:11

[Профиль]  [ЛС] 

AbiJan

Стаж: 6 лет 2 месяца

Сообщений: 80

Симпатии: 12

vadmin, я думаю ты слишком груба сказал, на счет знании или о не знании.
Относись более сдержанней)))Это лично мое мнение

Создавать темы 01-Май-2012 22:22

[Профиль]  [ЛС] 

born7

Стаж: 5 лет 6 месяцев

Сообщений: 1

DAYTE NA KA4KU LUDEM POKA4AT

Создавать темы 10-Май-2012 14:53

[Профиль]  [ЛС] 

zokirbek_

Стаж: 5 лет 6 месяцев

Сообщений: 3

посмотрим фильм

Создавать темы 13-Май-2012 16:39

[Профиль]  [ЛС] 

dj muhammad ali

Стаж: 5 лет 5 месяцев

Сообщений: 19

da

Создавать темы 13-Май-2012 16:47

[Профиль]  [ЛС] 

begim

Стаж: 5 лет 6 месяцев

Сообщений: 4

Лучше бы скоролсти дал вместо болтовни

Создавать темы 14-Май-2012 16:11

[Профиль]  [ЛС] 

begim

Стаж: 5 лет 6 месяцев

Сообщений: 4

Лучше бы скорости дал вместо болтавни

Создавать темы 14-Май-2012 16:11

[Профиль]  [ЛС] 

vadmin ®

Стаж: 7 лет

Сообщений: 70

Симпатии: 13

vadmin, я думаю ты слишком груба сказал, на счет знании или о не знании.
Относись более сдержанней)))Это лично мое мнение
Не Вам меня судить.

Создавать темы 06-Июн-2012 17:23

[Профиль]  [ЛС] 

mp1988

Стаж: 6 лет 6 месяцев

Сообщений: 607

Симпатии: 971

хорошая драма, интересный фильм

Создавать темы 08-Июл-2012 19:13

[Профиль]  [ЛС] 
Показать сообщения:    
Ответить на тему

Текущее время: 24-Авг 08:03

Часовой пояс: UTC + 5



Вы не можете начинать темы
Вы не можете отвечать на сообщения
Вы не можете редактировать свои сообщения
Вы не можете удалять свои сообщения
Вы не можете голосовать в опросах
Вы не можете прикреплять файлы к сообщениям
Вы не можете скачивать файлы