[#27] Семь / Se7en (Дэвид Финчер) [1995 г., триллер, драма, криминал]

Ответить на тему
 

vadmin ®

Стаж: 7 лет 3 месяца

Сообщений: 70

Симпатии: 13

-Семь / Seven / Se7en
-IMDb: Top 250: #27-Год выпуска: 1995
Страна: США
Жанр: триллер, драма, криминал
Продолжительность: 02:06:46
Перевод: Профессиональный (многоголосый, закадровый) (Позитив-Мультимедия)-Режиссер: Дэвид Финчер
Продюссер: Стивен Браун, Санфорд Панич, Мишель Платт
Сценарий: Эндрю Кевин Уокер-Бюджет: $33 000 000
Премьера в мире: 22 сентября 1995-В ролях: Брэд Питт, Морган Фриман, Гвинет Пэлтроу, Кевин Спейси, Р. Ли Эрми, Эндрю Кевин Уокер, Дэниэл Зацапа, Джон Кассини, Боб Макк, Питер Кромби-Описание: Детектив Уильям Сомерсет — ветеран уголовного сыска, мечтающий уйти на пенсию и уехать подальше от города и грешных обитателей. За 7 дней до пенсии на Сомерсета сваливаются две неприятности: молодой напарник Миллс и особо изощренное убийство. Острый ум опытного сыщика сразу определяет, что за этим преступлением, скорее всего, последуют другие. Новости подтверждают его догадку. Поняв, что убийца наказывает свои жертвы за совершенные ими смертные грехи, детектив встает перед выбором: вернуться к работе, либо уйти и передать дело своему менее опытному напарнику?- R - Лицам до 17 лет обязательно присутствие взрослого- 
-Качество: HDRip
Формат: AVI
Видео кодек: XviD
Аудио кодек: MP3
Видео: 656x272 (2.41:1), 23.976 fps, XviD build 50 ~702 kbps avg, 0.16 bit/pixel
Аудио: 48 kHz, MPEG Layer 3, 2 ch, ~112.00 kbps avg

MI

General
Complete name                    : D:\*****\Se7en.1995.HDRip.avi
Format                           : AVI
Format/Info                      : Audio Video Interleave
File size                        : 747 MiB
Duration                         : 2h 6mn
Overall bit rate                 : 824 Kbps
Writing application              : VirtualDubMod 1.5.10.2 (build 2540/release)
Writing library                  : VirtualDubMod build 2540/release
Video
ID                               : 0
Format                           : MPEG-4 Visual
Format profile                   : Advanced [email protected]
Format settings, BVOP            : Yes
Format settings, QPel            : No
Format settings, GMC             : No warppoints
Format settings, Matrix          : Custom
Codec ID                         : XVID
Codec ID/Hint                    : XviD
Duration                         : 2h 6mn
Bit rate                         : 703 Kbps
Width                            : 656 pixels
Height                           : 272 pixels
Display aspect ratio             : 2.40:1
Frame rate                       : 23.976 fps
Color space                      : YUV
Chroma subsampling               : 4:2:0
Bit depth                        : 8 bits
Scan type                        : Progressive
Bits/(Pixel*Frame)               : 0.164
Stream size                      : 637 MiB (85%)
Writing library                  : XviD 1.2.1 (UTC 2008-12-04)
Audio
ID                               : 1
Format                           : MPEG Audio
Format version                   : Version 1
Format profile                   : Layer 3
Codec ID                         : 55
Codec ID/Hint                    : MP3
Duration                         : 2h 6mn
Bit rate mode                    : Constant
Bit rate                         : 112 Kbps
Channel(s)                       : 2 channels
Sampling rate                    : 48.0 KHz
Stream size                      : 102 MiB (14%)
Alignment                        : Aligned on interleaves
Interleave, duration             : 42 ms (1.00 video frame)
Interleave, preload duration     : 504 ms
Writing library                  : LAME3.98r
Encoding settings                : -m s -V 4 -q 2 -lowpass 15.6 -b 112

Скриншоты

Создавать темы 25-Мар-2012 15:11

[Профиль]  [ЛС] 

vadim-mark

Стаж: 5 лет 11 месяцев

Сообщений: 46

Симпатии: 2

Ничего народ не понимает в классике (скачан 11 раз) ! Этот фильм должен бал скачан "тыща сто одиннадцать" раз !
Эээээххх......народ)))

Создавать темы 22-Апр-2012 20:09

[Профиль]  [ЛС] 

vadmin ®

Стаж: 7 лет 3 месяца

Сообщений: 70

Симпатии: 13

Ничего народ не понимает в классике (скачан 11 раз) ! Этот фильм должен бал скачан "тыща сто одиннадцать" раз !
Эээээххх......народ)))
солидарен.

Создавать темы 06-Июн-2012 17:19

[Профиль]  [ЛС] 

IIpu3pak

Стаж: 5 лет 9 месяцев

Сообщений: 258

Симпатии: 53

У Финчера все фильмы хороши. А этот так и вовсе шедевр.

Создавать темы 30-Июн-2012 00:39

[Профиль]  [ЛС] 

Jokero

Стаж: 6 лет 8 месяцев

Сообщений: 176

Симпатии: 4

Где сидеры?

Создавать темы 30-Июн-2012 12:43

[Профиль]  [ЛС] 

vadmin ®

Стаж: 7 лет 3 месяца

Сообщений: 70

Симпатии: 13

Вернулся на раздачу.
Приятного просмотра.

Создавать темы 30-Июн-2012 15:52

[Профиль]  [ЛС] 

tashkent

Стаж: 6 лет 10 месяцев

Сообщений: 18

Симпатии: 1

Ничего народ не понимает в классике (скачан 11 раз) ! Этот фильм должен бал скачан "тыща сто одиннадцать" раз !
Эээээххх......народ)))
эт точно

Создавать темы 05-Июл-2012 12:57

[Профиль]  [ЛС] 

RokC

Стаж: 5 лет 10 месяцев

Сообщений: 56

Это намой взгляд самый лучший фильм 20 века

Создавать темы 17-Июл-2012 16:13

[Профиль]  [ЛС] 

Tyrael7774

Стаж: 5 лет 3 месяца

Сообщений: 76

Симпатии: 1

Отличный фильм!!! спасибо!) ay

Создавать темы 20-Авг-2012 22:18

[Профиль]  [ЛС] 

maestron

Стаж: 5 лет 11 месяцев

Сообщений: 97

Симпатии: 2

Если к фильму причастны Финчер, Питт, Фримэен и Спейси, то фильм обязан быть лучшим!

Создавать темы 24-Авг-2012 03:06

[Профиль]  [ЛС] 

239tuit

Стаж: 5 лет 3 месяца

Сообщений: 75

суперский это точно

Создавать темы 25-Авг-2012 21:07

[Профиль]  [ЛС] 

faceman

Стаж: 5 лет 11 месяцев

Сообщений: 27

Симпатии: 1

Ничего народ не понимает в классике (скачан 11 раз) ! Этот фильм должен бал скачан "тыща сто одиннадцать" раз !
Эээээххх......народ)))
Полностью согласен, до сих пор помнб ощушения когда в первый раз смотрел. Хотя смотрел в ужасном качестве, но атмосфера и сюжет и игра актеров, нет слов. А Концовка, так вобще чуть не разрыдался как тупая пезда)) Понял что до этой роли несправедливо недооценивал Бреда Питта.

Создавать темы 30-Янв-2014 00:56

[Профиль]  [ЛС] 

oasrarov

Стаж: 6 лет 7 месяцев

Сообщений: 17

Симпатии: 2

народ, встаньте кто-нибудь на раздачу, ну никак не могу скачать

Создавать темы 04-Фев-2014 13:42

[Профиль]  [ЛС] 

Raf

Стаж: 7 лет 6 месяцев

Сообщений: 50

Симпатии: 3

oasrarov, народ, встаньте кто-нибудь на раздачу, ну никак не могу скачать
+1

Создавать темы 20-Мар-2014 22:19

[Профиль]  [ЛС] 
Показать сообщения:    
Ответить на тему

Текущее время: 16-Дек 06:28

Часовой пояс: UTC + 5



Вы не можете начинать темы
Вы не можете отвечать на сообщения
Вы не можете редактировать свои сообщения
Вы не можете удалять свои сообщения
Вы не можете голосовать в опросах
Вы не можете прикреплять файлы к сообщениям
Вы не можете скачивать файлы