Воин / Warrior (Гэвин О’Коннор) [2011 г., боевик, драма, спорт, BDRip 720р]

Ответить на тему
 

ziyod ®

Стаж: 7 лет 7 месяцев

Сообщений: 367

Симпатии: 60

Воин
Warrior
-«Family is worth fighting for.»
-Информация о фильме:
Год выпуска: 2011
Страна: США
Жанр: боевик, драма, спорт
Продолжительность: 140 мин. / 02:19:54
Перевод: Профессиональный (многоголосый, закадровый)-Режиссер: Гэвин О’Коннор
Продюссер: Гэвин О’Коннор, Грег О’Коннор, Лиза Эллзи
Сценарий: Гэвин О’Коннор, Клиф Дорфман, Энтони Тамбакис
Бюджет: $25 000 000
Премьера в мире: 9 сентября 2011-В ролях: Джоэл Эдгертон, Том Харди, Ник Нолти, Дженнифер Моррисон, Фрэнк Грилло, Кевин Данн, Максимилианно Эрнандез, Брайан Коллен, Сэм Шеридан, Фернандо Чиен-Описание: Младший сын спившегося боксера возвращается домой, чтобы отец тренировал его для предстоящего турнира по боевым искусствам. Однако на этом пути бойцу придется столкнуться со своим старшим братом.-Рейтинг:
 
PG-13 - Детям до 13 лет просмотр не желателен-Знаете ли вы, что...
  • Съемки фильма проходили в Питтсбурге и Атлантик-сити.
  • Прототипом бойца по имени Коба, сыграного Куртом Энглом, является многократный чемпион мира по боям без правил Федор Емельяненко. Для этой роли Курт Энгл изучил все записи боев Федора Емельяненко, сбросил 14 килограмм веса и три месяца учил русский язык.
  • Для роли Том Харди набрал 12 килограмм мышечной массы.
  • Техническим консультантом фильма был Грег Джексон, неоднократный победитель в категории «ММА тренер года».
-Файл:
Качество: BDRip 720р
Формат: MKV
Видео кодек: H.26x
Видео: 6601 kb/s, 1280x534
Аудио №1: Russian: AC3, 224 kb/s (2 ch)
Аудио №2: English: DTS, 1510 kb/s (6 ch)-

MI

General
Unique ID                                : 218385727372955972597540308008004365066 (0xA44B8FA953103985B4F94062651A2B0A)
Complete name                            : Voin.2011.P.BDRip.720p.mkv
Format                                   : Matroska
Format version                           : Version 2
File size                                : 8.14 GiB
Duration                                 : 2h 19mn
Overall bit rate                         : 8 332 Kbps
Movie name                               : 勇士.2011 by 游龙公子
Encoded date                             : UTC 2012-03-26 18:42:21
Writing application                      : mkvmerge v5.0.1 ('Es ist Sommer') built on Nov  6 2011 16:23:40
Writing library                          : libebml v1.2.2 + libmatroska v1.3.0
Video
ID                                       : 1
Format                                   : AVC
Format/Info                              : Advanced Video Codec
Format profile                           : [email protected]
Format settings, CABAC                   : Yes
Format settings, ReFrames                : 9 frames
Muxing mode                              : Header stripping
Codec ID                                 : V_MPEG4/ISO/AVC
Duration                                 : 2h 19mn
Bit rate                                 : 6 601 Kbps
Width                                    : 1 280 pixels
Height                                   : 534 pixels
Display aspect ratio                     : 2.40:1
Frame rate                               : 23.976 fps
Color space                              : YUV
Chroma subsampling                       : 4:2:0
Bit depth                                : 8 bits
Scan type                                : Progressive
Bits/(Pixel*Frame)                       : 0.403
Stream size                              : 6.29 GiB (77%)
Title                                    : Warrior.2011
Writing library                          : x264 core 119 r2106+636 fcb18f7
Encoding settings                        : cabac=1 / ref=9 / deblock=1:-3:-3 / analyse=0x3:0x113 / me=umh / subme=11 / psy=1 / fade_compensate=0.00 / psy_rd=1.05:0.10 / mixed_ref=1 / me_range=32 / chroma_me=1 / trellis=2 / 8x8dct=1 / cqm=1 / deadzone=21,11 / fast_pskip=0 / chroma_qp_offset=-2 / threads=6 / sliced_threads=0 / nr=0 / decimate=1 / interlaced=0 / bluray_compat=0 / constrained_intra=0 / fgo=0 / bframes=6 / b_pyramid=2 / b_adapt=2 / b_bias=0 / direct=3 / weightb=1 / open_gop=0 / weightp=2 / keyint=250 / keyint_min=23 / scenecut=40 / intra_refresh=0 / rc_lookahead=40 / rc=2pass / mbtree=1 / bitrate=6601 / ratetol=1.0 / qcomp=0.70 / qpmin=3 / qpmax=69 / qpstep=4 / cplxblur=20.0 / qblur=0.5 / vbv_maxrate=40000 / vbv_bufsize=30000 / nal_hrd=none / ip_ratio=1.40 / aq=2:1.00
Language                                 : English
Audio #1
ID                                       : 2
Format                                   : AC-3
Format/Info                              : Audio Coding 3
Mode extension                           : CM (complete main)
Muxing mode                              : Header stripping
Codec ID                                 : A_AC3
Duration                                 : 2h 19mn
Bit rate mode                            : Constant
Bit rate                                 : 224 Kbps
Channel(s)                               : 2 channels
Channel positions                        : Front: L R
Sampling rate                            : 48.0 KHz
Bit depth                                : 16 bits
Compression mode                         : Lossy
Delay relative to video                  : 1s 825ms
Stream size                              : 224 MiB (3%)
Language                                 : Russian
Audio #2
ID                                       : 3
Format                                   : DTS
Format/Info                              : Digital Theater Systems
Muxing mode                              : Header stripping
Codec ID                                 : A_DTS
Duration                                 : 2h 19mn
Bit rate mode                            : Constant
Bit rate                                 : 1 510 Kbps
Channel(s)                               : 6 channels
Channel positions                        : Front: L C R, Side: L R, LFE
Sampling rate                            : 48.0 KHz
Bit depth                                : 24 bits
Compression mode                         : Lossy
Stream size                              : 1.48 GiB (18%)
Title                                    : English DTS-HDMA core 5.1 1509Kbps
Language                                 : English
--


Последний раз редактировалось: ziyod (2012-04-09 21:21), всего редактировалось 1 раз

Создавать темы 27-Мар-2012 23:10

[Профиль]  [ЛС] 

inviz

Стаж: 5 лет 11 месяцев

Сообщений: 153

Симпатии: 6

Золото будет? А то рейтинг сливается быстро.

Создавать темы 27-Мар-2012 23:44

[Профиль]  [ЛС] 

Judas Desperados

Стаж: 5 лет 8 месяцев

Сообщений: 185

Симпатии: 19

Спасибо)) а с какой скоростью будете раздавать?

Создавать темы 27-Мар-2012 23:47

[Профиль]  [ЛС] 

inviz

Стаж: 5 лет 11 месяцев

Сообщений: 153

Симпатии: 6

Скорасть будет?

Создавать темы 28-Мар-2012 08:14

[Профиль]  [ЛС] 
Показать сообщения:    
Ответить на тему

Текущее время: 17-Окт 23:39

Часовой пояс: UTC + 5



Вы не можете начинать темы
Вы не можете отвечать на сообщения
Вы не можете редактировать свои сообщения
Вы не можете удалять свои сообщения
Вы не можете голосовать в опросах
Вы не можете прикреплять файлы к сообщениям
Вы не можете скачивать файлы