Война Богов: Бессмертные / Immortals (Тарсем Синх) [2011 г., фэнтези, боевик, DVD5]

Ответить на тему
 

anviko ®

Стаж: 6 лет 9 месяцев

Сообщений: 84

Симпатии: 3

Война Богов: Бессмертные / Immortals
Год выпуска: 2011
Страна: США
Жанр: фэнтези, боевик
Продолжительность: 110 мин. / 01:50:00
Перевод: профессиональный (полное дублирование)
Режиссер: Тарсем Синх
Продюссер: Джанни Нуннари, Марк Кантон, Райан Кэвэна
Сценарий: Чарли Парлапанидес, Влас Парлапанидес
Бюджет: $75 000 000
Премьера в мире: 10 ноября 2011,
В ролях: Генри Кавилл, Стивен Дорфф, Люк Эванс, Изабель Лукас, Келлан Латс, Фрида Пинто, Микки Рурк, Джон Хёрт, Джозеф Морган, Энн Дэй-Джонс
Описание: Одержимый жаждой власти царь Гиперион хочет уничтожить род людской и низвергнуть богов. С помощью Эпирского Лука, сделанного руками бога войны Ареса, он освобождает Титанов от тысячелетнего заточения в горах Тартара. Боги бессильны противостоять безумному царю. Единственная надежда на спасение — герой Тесей, который вступает в неравную войну с Титанами. Боги Олимпа во главе с самим Зевсом, пророчица Федра и хитрый раб Ставрос помогают герою в смертельной битве с демонами. Тесей должен победить, или боги Олимпа будут низвержены, а Эллада обречена на погибель…
Доп. информация: для просмотра требуются очки для анаглифного изображения (красно-синие)
Качество: DVD5
Формат: DVD Video
Видео кодек: MPEG2
Аудио кодек: AC3
Видео: MPEG2 Video (224 (0xE0)) / 720x576 / 23.98fps / 5 000 Kbps
Аудио: Русский / Дублированный / АС-3 / 6 channels, Front: L C R, Side: L R, LFE / 48.0 KHz / 384 Kbps

Медио

General
Complete name : Vojna.Bogov.Bessmertnye.3D.2011.DVD5
Format : MPEG-PS
File size : 1 024 MiB
Duration : 31mn 29s
Overall bit rate : 4 545 Kbps
Video
ID : 224 (0xE0)
Format : MPEG Video
Format version : Version 2
Format profile : [email protected]
Format settings, BVOP : Yes
Format settings, Matrix : Default
Format settings, GOP : M=3, N=15
Duration : 31mn 29s
Bit rate mode : Variable
Bit rate : 3 252 Kbps
Nominal bit rate : 5 000 Kbps
Width : 720 pixels
Height : 576 pixels
Display aspect ratio : 16:9
Frame rate : 25.000 fps
Standard : PAL
Color space : YUV
Chroma subsampling : 4:2:0
Bit depth : 8 bits
Scan type : Progressive
Compression mode : Lossy
Bits/(Pixel*Frame) : 0.314
Stream size : 733 MiB (72%)
Audio #1
ID : 189 (0xBD)-128 (0x80)
Format : AC-3
Format/Info : Audio Coding 3
Mode extension : CM (complete main)
Muxing mode : DVD-Video
Duration : 31mn 29s
Bit rate mode : Constant
Bit rate : 448 Kbps
Channel(s) : 6 channels
Channel positions : Front: L C R, Side: L R, LFE
Sampling rate : 48.0 KHz
Bit depth : 16 bits
Compression mode : Lossy
Delay relative to video : -616ms
Stream size : 101 MiB (10%)
Audio #2
ID : 189 (0xBD)-137 (0x89)
Format : DTS
Format/Info : Digital Theater Systems
Muxing mode : DVD-Video
Duration : 31mn 29s
Bit rate mode : Constant
Bit rate : 755 Kbps
Channel(s) : 6 channels
Channel positions : Front: L C R, Side: L R, LFE
Sampling rate : 48.0 KHz
Bit depth : 24 bits
Compression mode : Lossy
Delay relative to video : -669ms
Stream size : 170 MiB (17%)
Menu

Скриншоты








Последний раз редактировалось: anviko (2012-04-02 08:58), всего редактировалось 1 раз

Создавать темы 28-Мар-2012 08:58

[Профиль]  [ЛС] 

Mixer City

Стаж: 6 лет 9 месяцев

Сообщений: 754

Симпатии: 63

anviko, секунды допиши.

Создавать темы 28-Мар-2012 10:25

[Профиль]  [ЛС] 

qwq777qwq

Стаж: 6 лет 9 месяцев

Сообщений: 6

Симпатии: 1

давай скачаем 3й день 0%

Создавать темы 06-Янв-2013 10:24

[Профиль]  [ЛС] 

qwq777qwq

Стаж: 6 лет 9 месяцев

Сообщений: 6

Симпатии: 1

остановилось на 42.4%

Создавать темы 09-Янв-2013 09:31

[Профиль]  [ЛС] 

qwq777qwq

Стаж: 6 лет 9 месяцев

Сообщений: 6

Симпатии: 1

???

Создавать темы 09-Янв-2013 18:46

[Профиль]  [ЛС] 
Показать сообщения:    
Ответить на тему

Текущее время: 19-Окт 23:05

Часовой пояс: UTC + 5



Вы не можете начинать темы
Вы не можете отвечать на сообщения
Вы не можете редактировать свои сообщения
Вы не можете удалять свои сообщения
Вы не можете голосовать в опросах
Вы не можете прикреплять файлы к сообщениям
Вы не можете скачивать файлы