14 клинков / Jin yi wei (Дэниэл Ли) [2010 г., Боевик / Триллер / Драма / История, DVDRip]

Ответить на тему
 

Kubaev_Muhiddin ®

Стаж: 6 лет 10 месяцев

Сообщений: 104

Симпатии: 34

14 клинков / Jin yi wei
Год выпуска: 2010
Страна: Гонконг, Китай, Сингапур
Жанр: Боевик / Триллер / Драма / История
Продолжительность: 01:48:14
Перевод: профессиональный (многоголосый, закадровый)
Режиссер: Дэниэл Ли
Продюссер: Анн Ан, Тинюнь Ванг, Сузанна Цан
Сценарий: Дэниэл Ли, Абе Квонг, Тин Шу Мак
Бюджет: 20 000 000 $
Премьера в мире: 4 февраля 2010
В ролях: Донни Ен, Чжао Вэй, Чун Ву, Кейт Цуй, Ци Юйу, Саммо Хунг Кам-Бо, Куан-Тай Чен, Чен Зи <~~>, Дамиан Лау, Кар-Йинг Лау
Описание: Во времена правления династии Мин Император учредил секретную службу безопасности, которая подчинялась только его указам, Цзиньивэй, или Охрана в парчовых халатах. Члены этого органа наделялись самыми широкими полномочиями и действовали исключительно в интересах главы государства. Неподсудны. Безжалостны. Непобедимы.
Действие фильма разворачивается на закате династии Мин, когда службой управляли евнухи. В изгнании томится принц Чин, вынашивая план отмщения. На удачу он сумел переманить на свою сторону главного евнуха Цзя Цзин Чжона, и тот отдает императорский приказ главе Цзиньивэй — Чин Лону — схватить Советника Чжао Шэнь Еня и забрать его шкатулку якобы со списком предателей. Да вот беда, там хранилась Императорская печать, символ власти, которую следует оберегать как зеницу ока. И Чин Лон осознал, что его здорово подставили. Избегая ловушек, он пытается выяснить правду, но век члена Цзиньивэя недолог, смерть бежит по пятам, выполнит ли Чин Лон свое последнее задание?
Качество: DVDRip
Формат: AVI
Видео кодек: XviD
Аудио кодек: MP3
Видео: Xvid 688x336 23.97 6 fps 1 022 kbps
Аудио: MPEG Audio Layer 3 48000 Hz stereo 128 kbps

Медиа инфо

Video
ID : 0
Format : MPEG-4 Visual
Format profile : Advanced [email protected]
Format settings, BVOP : 1
Format settings, QPel : No
Format settings, GMC : No warppoints
Format settings, Matrix : Custom
Codec ID : XVID
Codec ID/Hint : XviD
Duration : 1h 48mn
Bit rate : 1 022 Kbps
Width : 688 pixels
Height : 336 pixels
Display aspect ratio : 2.048
Frame rate : 23.976 fps
Color space : YUV
Chroma subsampling : 4:2:0
Bit depth : 8 bits
Scan type : Progressive
Compression mode : Lossy
Bits/(Pixel*Frame) : 0.184
Stream size : 791 MiB (88%)
Writing library : XviD 1.2.1 (UTC 2008-12-04)
Audio
ID : 1
Format : MPEG Audio
Format version : Version 1
Format profile : Layer 3
Mode : Joint stereo
Mode extension : MS Stereo
Codec ID : 55
Codec ID/Hint : MP3
Duration : 1h 48mn
Bit rate mode : Constant
Bit rate : 128 Kbps
Channel(s) : 2 channels
Sampling rate : 48.0 KHz
Compression mode : Lossy
Stream size : 99.1 MiB (11%)
Alignment : Aligned on interleaves
Interleave, duration : 83 ms (2.00 video frames)
Interleave, preload duration : 504 ms
Writing library : LAME3.98r
Encoding settings : -m j -V 4 -q 2 -lowpass 17 -b 128

Скриншоты




Создавать темы 29-Мар-2012 02:22

[Профиль]  [ЛС] 

FartMen

Стаж: 5 лет 9 месяцев

Сообщений: 30

Симпатии: 2

тут играет чувак из Ип ман

Создавать темы 30-Мар-2012 21:22

[Профиль]  [ЛС] 

Casper_45

Стаж: 6 лет 7 месяцев

Сообщений: 24

skorst

Создавать темы 01-Апр-2012 17:50

[Профиль]  [ЛС] 

Shuxratt

Стаж: 6 лет 10 месяцев

Сообщений: 76

Симпатии: 2

ип ман супер

Создавать темы 09-Апр-2012 12:15

[Профиль]  [ЛС] 

murod123

Стаж: 5 лет 10 месяцев

Сообщений: 3

спасибо

Создавать темы 09-Апр-2012 21:56

[Профиль]  [ЛС] 

dencher

Стаж: 5 лет 8 месяцев

Сообщений: 6

спасибо

Создавать темы 18-Апр-2012 02:05

[Профиль]  [ЛС] 

freeman9

Стаж: 5 лет 1 месяц

Сообщений: 24

Симпатии: 7

skoroooost plizz

Создавать темы 07-Апр-2014 08:51

[Профиль]  [ЛС] 
Показать сообщения:    
Ответить на тему

Текущее время: 16-Дек 08:35

Часовой пояс: UTC + 5



Вы не можете начинать темы
Вы не можете отвечать на сообщения
Вы не можете редактировать свои сообщения
Вы не можете удалять свои сообщения
Вы не можете голосовать в опросах
Вы не можете прикреплять файлы к сообщениям
Вы не можете скачивать файлы