Захват / Угон / Carjacked (Джон Бонито) [2011 г., триллер, HDRip]

Ответить на тему
 

Judas Desperados ®

Стаж: 5 лет 8 месяцев

Сообщений: 185

Симпатии: 19

Захват / Угон / Carjacked«It's her car. Don't tell her what to do with it.» -Год выпуска: 2011
Страна: США / Daniel Grodnik Productions, Films In Motion, Goldrush Entertainment
Жанр: триллер
Продолжительность: 01:29:26
Перевод: профессиональный (многоголосый, закадровый) [НТВ+][лицензия]-Режиссер: Джон Бонито
Продюссер: Эрик Гозлан, Дэниэл Гродник, Майкл Арата
Сценарий: Майкл Комптон, Шерри Джеффрис-Премьера в мире: 22 ноября 2011-В ролях: Мария Белло, Стивен Дорфф, Джоанна Кэссиди, Кристен Кер, р Катрин Дент, Тим Гриффин, Молли МакКуин, Гэри Граббс, Дэвид Дженсен, Анджелл Брукс-Описание: Молодую женщину с ребёнком в её же собственной машине берёт в заложницы грабитель банка.- R - лицам до 17 лет обязательно присутствие взрослого
 
-Качество: HDRip
Формат: AVI
Видео кодек: XviD
Аудио кодек: AC3
Видео: 1799 kb/s, 720x304
Аудио:384 kb/s (6 ch)

Media Info

Формат                                   : AVI
Формат/Информация                        : Audio Video Interleave
Размер файла                             : 1,37 Гбайт
Продолжительность                        : 1 ч. 29 м.
Общий поток                              : 2193 Кбит/сек
Название фильма                          : Захват / Carjacked (2011)
Режиссёр                                 : D!mka
Программа кодирования                    : VirtualDubMod 1.5.10.2 (build 2540/release)
Правообладатель                          : http://torrentsmd.com/
Видео
Идентификатор                            : 0
Формат                                   : MPEG-4 Visual
Профиль формата                          : Advanced [email protected]
Параметр BVOP формата                    : 1
Параметр QPel формата                    : Да
Параметр GMC формата                     : Без точки перехода
Параметр матрицы формата                 : Default (H.263)
Режим смешивания                         : Сжатый битовый поток
Идентификатор кодека                     : XVID
Идентификатор кодека/Подсказка           : XviD
Продолжительность                        : 1 ч. 29 м.
Битрейт                                  : 1799 Кбит/сек
Ширина                                   : 720 пикселей
Высота                                   : 304 пикселя
Соотношение сторон                       : 2,35:1
Частота кадров                           : 23,976 кадра/сек
Цветовое пространство                    : YUV
Субдискретизация насыщенности            : 4:2:0
Битовая глубина                          : 8 бит
Тип развёртки                            : Прогрессивная
Метод сжатия                             : С потерями
Бит/(Пиксели*Кадры)                      : 0.343
Размер потока                            : 1,12 Гбайт (82%)
Библиотека кодирования                   : XviD 1.2.1 (UTC 2008-12-04)
Аудио
Идентификатор                            : 1
Формат                                   : AC-3
Формат/Информация                        : Audio Coding 3
Расширение режима                        : CM (complete main)
Идентификатор кодека                     : 2000
Продолжительность                        : 1 ч. 29 м.
Вид битрейта                             : Постоянный
Битрейт                                  : 384 Кбит/сек
Каналы                                   : 6 каналов
Расположение каналов                     : Front: L C R, Side: L R, LFE
Частота                                  : 48,0 КГц
Битовая глубина                          : 16 бит
Метод сжатия                             : С потерями
Размер потока                            : 246 Мбайт (18%)
Выравнивание                             : Разделение по промежуткам
Продолжительность промежутка             : 42  мс. (1,00 видеокадр)
Время предзагрузки промежутка            : 500  мс.

Скриншоты






Последний раз редактировалось: Judas Desperados (2012-03-29 11:22), всего редактировалось 1 раз

Создавать темы 29-Мар-2012 11:10

[Профиль]  [ЛС] 

Judas Desperados ®

Стаж: 5 лет 8 месяцев

Сообщений: 185

Симпатии: 19

IMg.uz шас не работает, как заработает перезалью картинки, если знаете другой хостинг то подскажите)

Создавать темы 29-Мар-2012 11:11

[Профиль]  [ЛС] 

NepsteR

Стаж: 5 лет 7 месяцев

Сообщений: 113

Симпатии: 1

IMg.uz шас не работает, как заработает перезалью картинки, если знаете другой хостинг то подскажите)
http://tas-ix.net/gallery.php

Создавать темы 29-Мар-2012 11:19

[Профиль]  [ЛС] 

Judas Desperados ®

Стаж: 5 лет 8 месяцев

Сообщений: 185

Симпатии: 19

все, перезалил

Создавать темы 29-Мар-2012 11:22

[Профиль]  [ЛС] 

kozimbek.0k

Стаж: 6 лет 5 месяцев

Сообщений: 109

Симпатии: 7

как фильм?стоит качнуть?

Создавать темы 31-Мар-2012 08:58

[Профиль]  [ЛС] 

АндроидМэн

Стаж: 6 лет 3 месяца

Сообщений: 35

Симпатии: 2

Мне не понравился.

Создавать темы 01-Апр-2012 14:13

[Профиль]  [ЛС] 

slay

Стаж: 6 лет 4 месяца

Сообщений: 31

Симпатии: 1

Он всю неделю на премьере идёт!

Создавать темы 02-Апр-2012 19:11

[Профиль]  [ЛС] 
Показать сообщения:    
Ответить на тему

Текущее время: 23-Окт 16:38

Часовой пояс: UTC + 5



Вы не можете начинать темы
Вы не можете отвечать на сообщения
Вы не можете редактировать свои сообщения
Вы не можете удалять свои сообщения
Вы не можете голосовать в опросах
Вы не можете прикреплять файлы к сообщениям
Вы не можете скачивать файлы