Апокалипсис: Гитлер / Apocalypse: Hitler (Изабель Кларк) [2011 / Документальный / BDRip]

Ответить на тему
 

waffenss ®

Стаж: 5 лет 6 месяцев

Сообщений: 2

Апокалипсис: Гитлер / Apocalypse: Hitler-- Страна: Франция
Жанр: Документальный, военный, история
Год выпуска: 2011
Продолжительность: 2 - серии по ~ 00:54:00
Перевод: Авторский (одноголосый)
Режиссер: Изабель Кларк, Даниель Костелл-Описание: Во время Первой мировой войны (1914-1918 гг.) неудавшийся художник вдруг осознает свое предназначение: спасти Германию. Никто не мог предугадать, что Гитлер станет диктатором Германии, её фюрером. Переломным моментом для него стал экономический кризис 1929 года. Нацистская диктатура покрывает своей тенью всю Германию. Гитлер заявлял, что он желает мира, но в это время он уже был готов к войне – Апокалипсису.
Эпизоды:
1. Угроза / La Menace
2. Фюрер / Le Fuhrer--Качество: BDRip 720p
Формат: MKV
Видео кодек: MPEG4 Video (H.264)
Аудио кодек: AC3
Видео: 1280x720 at 25.000 fps, 7000 kbps avg
Аудио: Russian: 48 kHz, AC3, 3/2 (L,C,R,l,r) + LFE ch, ~640.00 kbps avg
Аудио 2: French: 48 kHz, AC3, 3/2 (L,C,R,l,r) + LFE ch, ~640.00 kbps avg

Медиа инфо

C:\Apocalypse.Hitler\Apocalypse.Hitler.E01.mkv
General
Unique ID : 225457732419562456347060834149368347441 (0xA99D946E2B4E47699AE7AF62C2DC3B31)
Complete name : C:\Apocalypse.Hitler\Apocalypse.Hitler.E01.mkv
Format : Matroska
File size : 3.14 GiB
Duration : 54mn 16s
Overall bit rate : 8 282 Kbps
Movie name : Apocalypse Hitler Ep1 (2011) - Release for HDCLUB
Encoded date : UTC 2012-01-18 10:20:49
Writing application : mkvmerge v3.4.0 ('Rapunzel') built on May 15 2010 09:38:20
Writing library : libebml v0.8.0 + libmatroska v0.9.0
Video #1
ID : 1
Format : AVC
Format/Info : Advanced Video Codec
Format profile : [email protected]
Format settings, CABAC : Yes
Format settings, ReFrames : 9 frames
Codec ID : V_MPEG4/ISO/AVC
Duration : 54mn 16s
Bit rate : 7 000 Kbps
Width : 1 280 pixels
Height : 720 pixels
Display aspect ratio : 16:9
Frame rate : 25.000 fps
Color space : YUV
Chroma subsampling : 4:2:0
Bit depth : 8 bits
Scan type : Progressive
Bits/(Pixel*Frame) : 0.304
Stream size : 2.59 GiB (83%)
Title : Release for HDCLUB
Writing library : x264 core 119 r2106 07efeb4
Encoding settings : cabac=1 / ref=9 / deblock=1:-3:-3 / analyse=0x3:0x113 / me=umh / subme=9 / psy=1 / psy_rd=1.00:0.00 / mixed_ref=1 / me_range=16 / chroma_me=1 / trellis=2 / 8x8dct=1 / cqm=0 / deadzone=21,11 / fast_pskip=0 / chroma_qp_offset=-2 / threads=6 / sliced_threads=0 / nr=0 / decimate=0 / interlaced=0 / bluray_compat=0 / constrained_intra=0 / bframes=9 / b_pyramid=2 / b_adapt=2 / b_bias=0 / direct=3 / weightb=1 / open_gop=0 / weightp=2 / keyint=250 / keyint_min=25 / scenecut=40 / intra_refresh=0 / rc=2pass / mbtree=0 / bitrate=7000 / ratetol=1.0 / qcomp=0.80 / qpmin=0 / qpmax=69 / qpstep=4 / cplxblur=20.0 / qblur=0.5 / ip_ratio=1.40 / pb_ratio=1.30 / aq=1:0.85
Language : French
Audio #2
ID : 2
Format : AC-3
Format/Info : Audio Coding 3
Mode extension : CM (complete main)
Codec ID : A_AC3
Duration : 54mn 16s
Bit rate mode : Constant
Bit rate : 640 Kbps
Channel(s) : 6 channels
Channel positions : Front: L C R, Side: L R, LFE
Sampling rate : 48.0 KHz
Bit depth : 16 bits
Compression mode : Lossy
Stream size : 248 MiB (8%)
Title : AC3 5.1 @ 640 kbps - Одноголосый закадровый, Ю.Сербин
Language : Russian
Audio #3
ID : 3
Format : AC-3
Format/Info : Audio Coding 3
Mode extension : CM (complete main)
Codec ID : A_AC3
Duration : 54mn 16s
Bit rate mode : Constant
Bit rate : 640 Kbps
Channel(s) : 6 channels
Channel positions : Front: L C R, Side: L R, LFE
Sampling rate : 48.0 KHz
Bit depth : 16 bits
Compression mode : Lossy
Stream size : 248 MiB (8%)
Title : AC3 5.1 @ 640 kbps
Language : French
Text #4
ID : 4
Format : ASS
Codec ID : S_TEXT/ASS
Codec ID/Info : Advanced Sub Station Alpha
Compression mode : Lossless
Title : English Forced
Language : English
Text #5
ID : 5
Format : ASS
Codec ID : S_TEXT/ASS
Codec ID/Info : Advanced Sub Station Alpha
Compression mode : Lossless
Title : French Forced
Language : French

Скриншоты

Создавать темы 03-Апр-2012 23:47

[Профиль]  [ЛС] 

khursandov.kamil

Стаж: 5 лет 4 месяца

Сообщений: 10

раздача будет?

Создавать темы 21-Май-2012 14:01

[Профиль]  [ЛС] 

boburizmailov

Стаж: 4 года 11 месяцев

Сообщений: 4

можете раздать пожалуста немношка осталось

Создавать темы 14-Фев-2013 21:32

[Профиль]  [ЛС] 

g-git

Стаж: 4 года 11 месяцев

Сообщений: 5

пожалуйста дайте докачать :)

Создавать темы 24-Фев-2013 03:51

[Профиль]  [ЛС] 
Показать сообщения:    
Ответить на тему

Текущее время: 18-Авг 08:15

Часовой пояс: UTC + 5



Вы не можете начинать темы
Вы не можете отвечать на сообщения
Вы не можете редактировать свои сообщения
Вы не можете удалять свои сообщения
Вы не можете голосовать в опросах
Вы не можете прикреплять файлы к сообщениям
Вы не можете скачивать файлы