WWE WrestleMania XVIII [2012, Рестлинг, HDTVRip]

Страницы :  1, 2  След.

Ответить на тему
 

TimaAnarki ®

Стаж: 5 лет 9 месяцев

Сообщений: 45

Симпатии: 1

WrestleMania XVIII
Год выпуска: 2012
Вид спорта: Рестлинг
Участники: Звезды WWE
Продолжительность: 03:57:34
Комментарий: оригинал-Описание: Майами был одним из двух главных претендующих городов за право проведения WrestleMania XXVII с Атлантой. Наконец, в феврале 2010 года, Атланта получила права на проведения данного события. По словам Miami-Dade Sports Commission, WWE объяснило это планами Майами на проведение других спортивных событий, конкурирующих с WrestleMania, такими как Super Bowl XLIV. Несмотря на это, Майами очень серьёзно рассматривалась местом проведения следующего PPV.
Тендерные документы на право проведения Wrestlemania с 2012 по 2014 годы были отосланы в семнадцать городов, из них четырнадцать оказали интерес. Среди ответивших городов были Лос-Анджелес, Нью-Орлеан, Нью-Йорк, Торонто, Детройт, Тампа, Ванкувер, Сент-Луис, Джэксонвилл, Орландо и Хьюстон. Даллас также проявил интерес, но ему отказали в связи с проведением там в течение следующих двух лет события NCAA Final Tour.
9 февраля 2011 года было объявлено, что Майами станет местом проведения главного события года для WWE. Несколько позже, сами представители WWE официально объявили о данном решении на пресс-конференции в отеле Fontainebleau Miami Beach. WrestleMania XXVIII станет вторым WrestleMania-событием, проводящемся в штате Флорида, четвертым PPV на открытом воздухе, и третьим из них, которое проводится абсолютно на открытом воздухе. Для проведения праздника, WWE выделили 250,000 долларов Miami-Dade Sports Commission. Незадолго до дня проведения WrestleMania XXVIII, начнется "Неделя WrestleMania", в течение которой будут проведены: церемония WWE Hall of Fame (за день до WrestleMania), традиционный WrestleMania Axxess, финал WrestleMania Reading Challenge, а также турнир по гольфу.-Качество: HDTVRip
Формат: MP4
Видео кодек: H.26x
Аудио кодек: AAC-LC
Видео: 704х400, 25.000 fps, 1356 kbps
Аудио: 48 kHz, 2 ch, 192 kbps

Media Info

General
Complete name : D:\WWE.Wrestlemania.28.HDTV.x264-RUDOS.mp4
Format : MPEG-4
Format profile : Base Media / Version 2
Codec ID : mp42
File size : 2.76 GiB
Duration : 3h 57mn
Overall bit rate mode : Variable
Overall bit rate : 1 666 Kbps
Encoded date : UTC 2011-09-08 11:43:25
Tagged date : UTC 2011-09-08 11:43:25
Video
ID : 1
Format : AVC
Format/Info : Advanced Video Codec
Format profile : [email protected]
Format settings, CABAC : Yes
Format settings, ReFrames : 4 frames
Codec ID : avc1
Codec ID/Info : Advanced Video Coding
Duration : 3h 57mn
Bit rate : 1 462 Kbps
Width : 704 pixels
Height : 400 pixels
Display aspect ratio : 16:9
Frame rate mode : Constant
Frame rate : 29.970 fps
Color space : YUV
Chroma subsampling : 4:2:0
Bit depth : 8 bits
Scan type : Progressive
Bits/(Pixel*Frame) : 0.173
Stream size : 2.43 GiB (88%)
Writing library : x264 core 122 r2183 c522ad1
Encoding settings : cabac=1 / ref=5 / deblock=1:0:0 / analyse=0x3:0x113 / me=umh / subme=9 / psy=1 / psy_rd=1.00:0.00 / mixed_ref=1 / me_range=16 / chroma_me=1 / trellis=1 / 8x8dct=1 / cqm=0 / deadzone=21,11 / fast_pskip=1 / chroma_qp_offset=-2 / threads=12 / sliced_threads=0 / nr=0 / decimate=1 / interlaced=0 / bluray_compat=0 / constrained_intra=0 / bframes=3 / b_pyramid=1 / b_adapt=2 / b_bias=0 / direct=3 / weightb=1 / open_gop=0 / weightp=2 / keyint=300 / keyint_min=30 / scenecut=40 / intra_refresh=0 / rc_lookahead=40 / rc=crf / mbtree=1 / crf=19.0 / qcomp=0.60 / qpmin=0 / qpmax=69 / qpstep=4 / vbv_maxrate=1500 / vbv_bufsize=1450 / crf_max=0.0 / nal_hrd=none / ip_ratio=1.40 / aq=1:1.00
Encoded date : UTC 2011-09-08 11:43:25
Tagged date : UTC 2011-09-08 11:43:25
Audio
ID : 2
Format : AAC
Format/Info : Advanced Audio Codec
Format profile : LC
Codec ID : 40
Duration : 3h 57mn
Bit rate mode : Variable
Bit rate : 192 Kbps
Channel(s) : 2 channels
Channel positions : Front: L R
Sampling rate : 48.0 KHz
Compression mode : Lossy
Stream size : 322 MiB (11%)
Encoded date : UTC 2011-09-08 11:43:25
Tagged date : UTC 2011-09-08 11:43:25

Список Боев

Джон Сина пр. Рока - Матч Легенд
Гробовщик пр. Трипл Ейч - Ад в Клетке
СМ Панк пр. Крис Джерико - Матч за чемпионшип WWE
Дениел Брайан пр. Шеймус - Матч за чемпионшип WWE в тяжелом весе
Коди Роудс пр. Биг Шоу - Матч за интерконтинентальный чемпионшип WWE
Команда Теодора Лонга (Kofi Kingston, R-Truth, Santino Marella, The Great Khali, Zack Ryder & Booker T) пр. Команда Джона Лауринайтиса (The Miz, David Otunga, Dolph Ziggler, Jack Swagger, Mark Henry & Drew McIntyre) - 12 Man Tag Team Match
Ренди Ортон пр. Кейна - Одиночный Матч
Бет Феникс и Ив Торрес пр. Келли Келли & Марии Меноунос - Командный Матч Див

Скриншоты





Последний раз редактировалось: TimaAnarki (2012-04-05 18:29), всего редактировалось 3 раз(а)

Создавать темы 04-Апр-2012 21:29

[Профиль]  [ЛС] 

dominion69

Стаж: 6 лет 5 месяцев

Сообщений: 324

Симпатии: 7

а куда спешил?)

Создавать темы 04-Апр-2012 21:30

[Профиль]  [ЛС] 

TimaAnarki ®

Стаж: 5 лет 9 месяцев

Сообщений: 45

Симпатии: 1

>а куда спешил?)
Сделал разметку заранее. Собсно говоря нужно срочно уйти на работы. Будет качаться и запускаться удаленно.

Создавать темы 04-Апр-2012 21:34

[Профиль]  [ЛС] 

rey mysterio

Стаж: 5 лет 9 месяцев

Сообщений: 164

Бои:
Pre-Show)Примо и Эпико (с Розой Мендес) (с) победили Тайсона Кидда и Джастина Гэбриела и Братьев Усо
1)Шеймус победил Дэниела Брайана (с)
2)Кейн победил Рэнди Ортона
3)Биг Шоу победил Коди Роудса (с)
4)Мария Меноунос и Келли Келли победили Ив Торрес и Бет Феникс
5)Гробовщик победил Трипл Эйча
6)Команда Джона Лауринайтиса (Дэвид Отунга (капитан), Марк Генри, Дрю Макинтайр, Дольф Зиглер, Джек Сваггер & Миз) победила Команду Теодора Лонга (Сантино Марелла (капитан), Р-Трус, Кофи Кингстон, Великий Кали, Зак Райдер & Букер Т)
7)СМ Панк (с) победил Криса Джерико
8)Рок победил Джона Сину

Создавать темы 04-Апр-2012 22:04

[Профиль]  [ЛС] 

aaaaa

Стаж: 5 лет 8 месяцев

Сообщений: 64

и зачем интригу портить????

Создавать темы 04-Апр-2012 22:11

[Профиль]  [ЛС] 

TimaAnarki ®

Стаж: 5 лет 9 месяцев

Сообщений: 45

Симпатии: 1

Я в прямом эфире через Трубы смотрел, а так, спасибо тебе, Кэп.

Создавать темы 04-Апр-2012 22:17

[Профиль]  [ЛС] 

rey mysterio

Стаж: 5 лет 9 месяцев

Сообщений: 164

Тебе тож спасибо))

Создавать темы 04-Апр-2012 23:36

[Профиль]  [ЛС] 

Pendalf

Стаж: 6 лет 4 месяца

Сообщений: 416

Симпатии: 34

TimaAnarki, мультитрекеры запрещены!

Создавать темы 05-Апр-2012 00:01

[Профиль]  [ЛС] 

rey mysterio

Стаж: 5 лет 9 месяцев

Сообщений: 164

эээ блин

Создавать темы 05-Апр-2012 00:12

[Профиль]  [ЛС] 

rey mysterio

Стаж: 5 лет 9 месяцев

Сообщений: 164

не надо было закрывать((((((

Создавать темы 05-Апр-2012 00:12

[Профиль]  [ЛС] 

Pendalf

Стаж: 6 лет 4 месяца

Сообщений: 416

Симпатии: 34

как релизер докачает и перезальет торрент - открою

Создавать темы 05-Апр-2012 00:24

[Профиль]  [ЛС] 

TimaAnarki ®

Стаж: 5 лет 9 месяцев

Сообщений: 45

Симпатии: 1

Скрины залил
МедиаИнфо добавил

Создавать темы 05-Апр-2012 18:31

[Профиль]  [ЛС] 

RokC

Стаж: 5 лет 9 месяцев

Сообщений: 56

пожалуйста скажите а с русскими коментариями есть реслманиа? заранее спасибо

Создавать темы 05-Апр-2012 20:35

[Профиль]  [ЛС] 

The Game

Стаж: 5 лет 7 месяцев

Сообщений: 80

Симпатии: 1

Скорость дайте

Создавать темы 09-Апр-2012 17:46

[Профиль]  [ЛС] 

KiNG_RaMIRo

Стаж: 4 года 11 месяцев

Сообщений: 29

по больше таких!!!!!!

Создавать темы 23-Окт-2012 21:04

[Профиль]  [ЛС] 
Показать сообщения:    
Ответить на тему

Текущее время: 23-Окт 16:49

Часовой пояс: UTC + 5



Вы не можете начинать темы
Вы не можете отвечать на сообщения
Вы не можете редактировать свои сообщения
Вы не можете удалять свои сообщения
Вы не можете голосовать в опросах
Вы не можете прикреплять файлы к сообщениям
Вы не можете скачивать файлы