Встреча со злом / Meeting Evil (Крис Фишер) [2012 г., триллер, драма, криминал, детектив, HDRip]

Ответить на тему
 

Rock321123 ®

Стаж: 7 лет 2 месяца

Сообщений: 94

Симпатии: 5

Встреча со злом / Meeting Evil
Год выпуска: 2012
Страна: США
Жанр: триллер, драма, криминал, детектив
Продолжительность: 01:29:05
Перевод: любительский (двухголосый)
Режиссер: Крис Фишер
Продюссер: Джастин Бёрш, Майк Каллахэн, Брэд Кревой
Сценарий: Крис Фишер, Томас Бергер
Премьера в мире: 4 мая 2012
В ролях: Сэмюэл Л. Джексон, Люк Уилсон, Лесли Бибб, Пейтон Лист, Трейси Томс, Райан Ли, Мьюз Уотсон, Дж.Д. Эвермор, Джиллиан Басерсон, Джейсон Алан Смит
Описание: Фильм расскажет об ужасных событиях, развернувшихся на фоне недавнего экономического коллапса.
R - Лицам до 17 лет обязательно присутствие взрослого
 
Доп. информация: Джон Флетон - примерный семьянин, живущий в пригороде, его недавно уволили, он в депрессии. Чтобы как-то свести концы с концами Джон предлагает помощь с автомобилем незнакомцу Ричи. И с этого момента его жизнь превращается в сюрреалистический сон, кошмар наяву. Находясь в таком состоянии, Джон подвергает переосмыслению все, что касается его жизни, его манеру поведения и саму природу зла...
Качество: HDRip
Формат: AVI
Видео кодек: XVID
Видео: 720x400, 23.97 fps, 1806 Kbps
Аудио: 6 channels, 48.0 KHz, 384 Kbps

MediaInfo

General
Complete name : G:\Downloads\Фильмы\Vstrecha.so.zlom.2012.XviD.HDRip.avi
Format : AVI
Format/Info : Audio Video Interleave
File size : 1.37 GiB
Duration : 1h 29mn
Overall bit rate : 2 200 Kbps
Movie name : Meeting Evil.2012.HDRip.[Chuzhaya]
Director : Chuzhaya
Writing application : VirtualDubModRus 1.5.10.2 (build 2542/release)
Copyright : by Pirat.CA
Video
ID : 0
Format : MPEG-4 Visual
Format profile : Advanced [email protected]
Format settings, BVOP : 2
Format settings, QPel : No
Format settings, GMC : No warppoints
Format settings, Matrix : Default (H.263)
Muxing mode : Packed bitstream
Codec ID : XVID
Codec ID/Hint : XviD
Duration : 1h 29mn
Bit rate : 1 806 Kbps
Width : 720 pixels
Height : 400 pixels
Display aspect ratio : 16:9
Frame rate : 23.976 fps
Color space : YUV
Chroma subsampling : 4:2:0
Bit depth : 8 bits
Scan type : Progressive
Compression mode : Lossy
Bits/(Pixel*Frame) : 0.262
Stream size : 1.12 GiB (82%)
Writing library : XviD 1.1.2 (UTC 2006-11-01)
Audio
ID : 1
Format : AC-3
Format/Info : Audio Coding 3
Mode extension : CM (complete main)
Codec ID : 2000
Duration : 1h 29mn
Bit rate mode : Constant
Bit rate : 384 Kbps
Channel(s) : 6 channels
Channel positions : Front: L C R, Side: L R, LFE
Sampling rate : 48.0 KHz
Bit depth : 16 bits
Compression mode : Lossy
Stream size : 245 MiB (17%)
Alignment : Split accross interleaves
Interleave, duration : 42 ms (1.00 video frame)
Interleave, preload duration : 500 ms

Скриншоты






Последний раз редактировалось: Rock321123 (2012-04-05 09:29), всего редактировалось 1 раз

Создавать темы 05-Апр-2012 03:07

[Профиль]  [ЛС] 

Mixer City

Стаж: 6 лет 11 месяцев

Сообщений: 754

Симпатии: 63

Rock321123, я тебе всё подправил, запоминай на будущее ... и допиши продолжительность в формате: чч:мм:сс.

Создавать темы 05-Апр-2012 03:46

[Профиль]  [ЛС] 

McFLY

Стаж: 5 лет 9 месяцев

Сообщений: 658

Симпатии: 22

Ха) фильм нормуль, есть над чем задуматься и посмеяться)))
Мне только одному показалось, что вначале фильма переводчик сказал "ВСТРЕЧА С ОСЛОМ")))))

Создавать темы 06-Апр-2012 19:10

[Профиль]  [ЛС] 
Показать сообщения:    
Ответить на тему

Текущее время: 13-Дек 12:00

Часовой пояс: UTC + 5



Вы не можете начинать темы
Вы не можете отвечать на сообщения
Вы не можете редактировать свои сообщения
Вы не можете удалять свои сообщения
Вы не можете голосовать в опросах
Вы не можете прикреплять файлы к сообщениям
Вы не можете скачивать файлы