Воздушное столкновение / Air Collision (Лиз Адамс) [2012 г., боевик, DVDRip]

Ответить на тему
 

Rock321123 ®

Стаж: 7 лет 1 месяц

Сообщений: 94

Симпатии: 5

Воздушное столкновение / Air Collision
Год выпуска: 2012
Страна: США
Жанр: боевик
Продолжительность: 01:32:26
Перевод: любительский (двухголосый)
Режиссер: Лиз Адамс
Продюссер: Пол Бейлс, Дэвид Майкл Лэтт, Дэвид Римави
Сценарий: Лиз Адамс
Премьера в мире: 27 марта 2012
В ролях: Реджинальд ВелДжонсон, Джордан Лэдд, Джералд Уэбб, Дэрин Купер, Даррен Томас, Кевин Ярброу, Эрин Кокер, Кэрин Уорд, Энди Клеменс, Matt Lageman
Описание: Мощная вспышка на солнце выводит из строя систему диспетчерского управления воздушным движением, а в это время пассажирский лайнер и самолет ВВС номер один летят встречными курсами в небе в районе Среднего Запада.
 
Качество: DVDRip
Формат: AVI
Видео кодек: Xvid
Аудио кодек: AC3
Видео: Xvid 720x400 23.976fps Bit rate: 1 817 Kbps
Аудио: Dolby AC3 48000Hz 6ch 448kbps

MediaInfo

Complete name : G:\Downloads\Фильмы\vozdywnoe stolknovenie.2012.DVDRip.XviD.[chuzhaya].avi
Format : AVI
Format/Info : Audio Video Interleave
File size : 1.47 GiB
Duration : 1h 32mn
Overall bit rate : 2 275 Kbps
Writing application : VirtualDubMod 1.5.10.3 | www.virtualdub-fr.org || (build 2550/release)
Writing library : VirtualDubMod build 2550/release
Video
Format : MPEG-4 Visual
Format profile : Streaming [email protected]
Format settings, BVOP : Yes
Format settings, QPel : No
Format settings, GMC : No warppoints
Format settings, Matrix : Default
Codec ID : XVID
Codec ID/Hint : XviD
Duration : 1h 32mn
Bit rate : 1 817 Kbps
Width : 720 pixels
Height : 400 pixels
Display aspect ratio : 16/9
Frame rate : 23.976 fps
Resolution : 24 bits
Colorimetry : 4:2:0
Scan type : Progressive
Bits/(Pixel*Frame) : 0.263
Stream size : 1.17 GiB (80%)
Writing library : XviD 1.2.1 (UTC 2008-12-04)
Audio
Format : AC-3
Format/Info : Audio Coding 3
Codec ID : 2000
Duration : 1h 32mn
Bit rate mode : Constant
Bit rate : 448 Kbps
Channel(s) : 6 channels
Channel positions : Front: L C R, Surround: L R, LFE
Sampling rate : 48.0 KHz
Stream size : 296 MiB (20%)
Alignment : Split accross interleaves
Interleave, duration : 42 ms (1.00 video frame)
Interleave, preload duration : 500 ms

Скриншоты






Последний раз редактировалось: Rock321123 (2012-04-06 09:00), всего редактировалось 2 раз(а)

Создавать темы 06-Апр-2012 03:11

[Профиль]  [ЛС] 

Mixer City

Стаж: 6 лет 10 месяцев

Сообщений: 754

Симпатии: 63

Rock321123, в шапке и в тех. данных заменить HDTVRip на DVDRip, вместо Другой MPEG4 написать Xvid.

Создавать темы 06-Апр-2012 03:22

[Профиль]  [ЛС] 

dimabek

Стаж: 6 лет 10 месяцев

Сообщений: 87

Симпатии: 13

По описанию похож на фильм-катастрофа

Создавать темы 06-Апр-2012 09:40

[Профиль]  [ЛС] 

Ума

Стаж: 5 лет 8 месяцев

Сообщений: 15

когда старт ? .

Создавать темы 06-Апр-2012 12:50

[Профиль]  [ЛС] 

akish_94

Стаж: 5 лет 7 месяцев

Сообщений: 1

где сидеры?

Создавать темы 06-Апр-2012 20:06

[Профиль]  [ЛС] 

dj muhammad ali

Стаж: 5 лет 8 месяцев

Сообщений: 19

Почему раздается с тало красным аааааааааааааааа???

Создавать темы 06-Апр-2012 23:06

[Профиль]  [ЛС] 

Bayram

Стаж: 5 лет 7 месяцев

Сообщений: 1

эээээ торрент ваще гонит последние дни ......не качет ваще......помогите а!

Создавать темы 07-Апр-2012 00:10

[Профиль]  [ЛС] 

pikiner

Стаж: 6 лет 11 месяцев

Сообщений: 47

Симпатии: 3

TV 3!!!

Создавать темы 07-Апр-2012 18:07

[Профиль]  [ЛС] 

janrok

Стаж: 5 лет 8 месяцев

Сообщений: 290

Симпатии: 27

это не флуд но фильм тв3!!!

Создавать темы 08-Апр-2012 23:02

[Профиль]  [ЛС] 

Rock321123 ®

Стаж: 7 лет 1 месяц

Сообщений: 94

Симпатии: 5

ребят вы ошибаетесь

Создавать темы 09-Апр-2012 00:24

[Профиль]  [ЛС] 

nigga22480

Стаж: 7 лет 6 месяцев

Сообщений: 211

Симпатии: 13

вот это рейтинг

Создавать темы 09-Апр-2012 09:55

[Профиль]  [ЛС] 

janik_neo

Стаж: 5 лет 9 месяцев

Сообщений: 27

Стоит ли посмотреть? откликнитесь

Создавать темы 09-Апр-2012 10:19

[Профиль]  [ЛС] 

Uzel

Стаж: 6 лет 7 месяцев

Сообщений: 923

Симпатии: 53

Ребята как качество фильма то?

Создавать темы 05-Май-2012 01:44

[Профиль]  [ЛС] 

Cortex

Стаж: 6 лет 4 месяца

Сообщений: 42

Симпатии: 1

кто смотрел фильм? стоит ка4нут

Создавать темы 05-Май-2012 08:43

[Профиль]  [ЛС] 
Показать сообщения:    
Ответить на тему

Текущее время: 20-Ноя 16:53

Часовой пояс: UTC + 5



Вы не можете начинать темы
Вы не можете отвечать на сообщения
Вы не можете редактировать свои сообщения
Вы не можете удалять свои сообщения
Вы не можете голосовать в опросах
Вы не можете прикреплять файлы к сообщениям
Вы не можете скачивать файлы