WWE Monday Night Raw 2012/04/02 [2012 г., Рестлинг, HDTV]

Ответить на тему
 

Спартанец ®

Стаж: 5 лет 8 месяцев

Сообщений: 361

WWE Monday Night Raw 2012/04/02
Год выпуска: 2012
Вид спорта: Рестлинг
Участники: Звезды WWE
Продолжительность: 01.41.13
Комментарий: профессиональный (многоголосый, закадровый)
Язык комментариев: русский
Описание: Еженедельный выпуск RAW. Выпуск от 2-го апреля 2012 года (следующий день после РестлМании)
Качество: HDTV
Формат: Mp4
Видео кодек: MPEG4
Видео: MPEG4 Video (H264) 704x400 (8:5) 59.94fps; Bit rate : 1 379 Kbps
Аудио: AAC 48000Hz stereo 1536kbps; Bit rate : 192 Kbps

MediaInfo

General
Format : MPEG-4
Format profile : Base Media / Version 2
Codec ID : mp42
File size : 1.11 GiB
Duration : 1h 41mn
Overall bit rate : 1 576 Kbps
Encoded date : UTC 2012-04-03 23:08:20
Tagged date : UTC 2012-04-03 23:08:20
Video
ID : 2
Format : AVC
Format/Info : Advanced Video Codec
Format profile : [email protected]
Format settings, CABAC : Yes
Format settings, ReFrames : 5 frames
Codec ID : avc1
Codec ID/Info : Advanced Video Coding
Duration : 1h 41mn
Bit rate mode : Variable
Bit rate : 1 379 Kbps
Width : 704 pixels
Height : 400 pixels
Display aspect ratio : 16:9
Original display aspect ratio : 1.600
Frame rate mode : Constant
Frame rate : 59.940 fps
Original frame rate : 29.970 fps
Standard : NTSC
Color space : YUV
Chroma subsampling : 4:2:0
Bit depth : 8 bits
Scan type : Interlaced
Scan order : Bottom Field First
Bits/(Pixel*Frame) : 0.082
Stream size : 998 MiB (87%)
Language : English
Encoded date : UTC 2012-04-03 23:08:20
Tagged date : UTC 2012-04-03 23:08:20
Audio
ID : 1
Format : AAC
Format/Info : Advanced Audio Codec
Format profile : LC
Codec ID : 40
Duration : 1h 41mn
Bit rate mode : Constant
Bit rate : 192 Kbps
Channel(s) : 2 channels
Channel positions : Front: L R
Sampling rate : 48.0 KHz
Compression mode : Lossy
Stream size : 139 MiB (12%)
Language : English
Encoded date : UTC 2012-04-03 23:08:20
Tagged date : UTC 2012-04-03 23:08:20

Kaрд

Santino Marella vs. Dolph Ziggler vs. Jack Swagger - Triple Threat Match
Lord Tensai vs. Alex Riley
Mark Henry vs. CM Punk - WWE Championship Match
Kofi Kingston vs. Cody Rhodes
The Miz vs. Zack Ryder

Скриншоты

Создавать темы 07-Апр-2012 11:52

[Профиль]  [ЛС] 

aaaaa

Стаж: 5 лет 8 месяцев

Сообщений: 64

Mark Henry vs. CM Punk - WWE Championship Match Я хочу этот бой увидить)))

Создавать темы 07-Апр-2012 18:03

[Профиль]  [ЛС] 

Спартанец ®

Стаж: 5 лет 8 месяцев

Сообщений: 361

Бой был не шуточный )))

Создавать темы 07-Апр-2012 18:06

[Профиль]  [ЛС] 

aaaaa

Стаж: 5 лет 8 месяцев

Сообщений: 64

Жалко у меня все торренты крассные =(

Создавать темы 07-Апр-2012 18:41

[Профиль]  [ЛС] 

moshennik

Стаж: 6 лет 11 месяцев

Сообщений: 31

aaaaa, такая же фигня... ничего скачать или раздать со вчерашнего вечера немогу

Создавать темы 07-Апр-2012 18:49

[Профиль]  [ЛС] 

RokC

Стаж: 5 лет 9 месяцев

Сообщений: 56

я тоже незнаете почему

Создавать темы 07-Апр-2012 19:56

[Профиль]  [ЛС] 

aaaaa

Стаж: 5 лет 8 месяцев

Сообщений: 64

Спартанец спасибо за все раздачи=)
Жду когда трекер заработает чтобы посмотреть эти бои
жду особенно бои
Mark Henry vs. CM Punk - WWE Championship Match
Kofi Kingston vs. Cody Rhodes
А кстати если будет возможно можешь скачать всех рестлеров (современый) промо ролики?

Создавать темы 07-Апр-2012 19:59

[Профиль]  [ЛС] 

Спартанец ®

Стаж: 5 лет 8 месяцев

Сообщений: 361

Выкладываю то, что есть на скачку ) Если что попадется из промо версий, буду загружать )

Создавать темы 07-Апр-2012 20:59

[Профиль]  [ЛС] 

rey mysterio

Стаж: 5 лет 9 месяцев

Сообщений: 164

в этом выпуске кажись должен брок леснар появится

Создавать темы 08-Апр-2012 16:21

[Профиль]  [ЛС] 

rey mysterio

Стаж: 5 лет 9 месяцев

Сообщений: 164

Выкладываю то, что есть на скачку ) Если что попадется из промо версий, буду загружать )
на rutracker.org там я видел пару месяцев назад токо про рея мистерио больше никого невидел но там много боёв

Создавать темы 08-Апр-2012 18:53

[Профиль]  [ЛС] 

Спартанец ®

Стаж: 5 лет 8 месяцев

Сообщений: 361

Я посмотрю Рэй

Создавать темы 09-Апр-2012 06:34

[Профиль]  [ЛС] 

Kroys

Стаж: 6 лет

Сообщений: 187

Симпатии: 1

на rutracker.org там я видел пару месяцев назад токо про рея мистерио больше никого невидел но там много боёв
да ВЕСЬ RuTracker.ru сюда перезалейте еще:))) весь реслинг)

Создавать темы 09-Апр-2012 11:16

[Профиль]  [ЛС] 

rey mysterio

Стаж: 5 лет 9 месяцев

Сообщений: 164

1 тб)) весит общее

Создавать темы 09-Апр-2012 12:08

[Профиль]  [ЛС] 

Спартанец ®

Стаж: 5 лет 8 месяцев

Сообщений: 361

Угу )) Я в заказах по уши просто )) Откуда столько времени взять ? ))

Создавать темы 09-Апр-2012 17:50

[Профиль]  [ЛС] 
Показать сообщения:    
Ответить на тему

Текущее время: 21-Окт 10:06

Часовой пояс: UTC + 5



Вы не можете начинать темы
Вы не можете отвечать на сообщения
Вы не можете редактировать свои сообщения
Вы не можете удалять свои сообщения
Вы не можете голосовать в опросах
Вы не можете прикреплять файлы к сообщениям
Вы не можете скачивать файлы