Китай: власть над миром? (Екатерина Гальперина) [2012г., Документальный, SATRip]

Ответить на тему
 

aaaaa ®

Стаж: 5 лет 8 месяцев

Сообщений: 64

Китай: власть над миром?
Жанр: Документальный, история, исследование
Выпущено: Россия, Документальное кино Леонида Млечина, ТВ Центр
Продолжительность: 01:18:01
Режиссер: Екатерина Гальперина
Год выпуска: 2012
В ролях: Доктора исторических наук Николай Злобин, Евгений Бажанов - ректор Дипломатической академии, российский государственный и общественный деятель, политолог Владимир Лукин, историк-китаист, доктор исторических наук Александр Панцов.
Описание: Мировой экономический кризис привел к тому, что китайский капитал хлынул в западные экономики. Запад умоляет китайцев покупать как можно больше, чтобы спасти мировую экономику.
Китайцы привыкли полагаться на западноевропейский и североамериканский опыт. Китайской элите казалось, что западные экономисты владеют сакральным знанием. Крушение американского и европейского рынков на фоне китайских успехов разрушили эту магию. Нынешние руководители Китая больше не нуждаются в чужих советах.
Вот почему в Пекине горячие головы заговорили, что Китай вступает в эпоху национального возрождения. После трех десятилетий непрерывных экономических успехов молодое поколение китайцев приходит к выводу, что наступило время величайших возможностей для Китая. Пора пересмотреть принципы взаимоотношений с внешним миром. Надо объяснить Западу, что происходит смена лидера. Центр власти над миром перемещается в Азию. Отныне Китай становится образцом для подражания...
О том, станет ли Китай в XXI веке ведущей державой мира - в фильме Леонида Млечина "Китай: власть над миром?"
Участвуют: доктора исторических наук Николай Злобин, Евгений Бажанов - ректор Дипломатической академии, российский государственный и общественный деятель, политолог Владимир Лукин, историк-китаист, доктор исторических наук Александр Панцов.
Качество:SATRip
Формат: AVI
Видео кодек: XviD
Аудио кодек: MP3
Видео: XviD, 704x528, 25.00fps, 1549 Kbps
Аудио: MP3,128 кб/с, 48 kHz, 2 ch
Video
ID : 0
Format : MPEG-4 Visual
Format settings, BVOP : 1
Format settings, QPel : No
Format settings, GMC : No warppoints
Format settings, Matrix : Default (H.263)
Muxing mode : Packed bitstream
Codec ID : DX50
Codec ID/Hint : DivX 5
Duration : 1h 18mn
Bit rate : 1 549 Kbps
Width : 704 pixels
Height : 528 pixels
Display aspect ratio : 4:3
Frame rate : 25.000 fps
Color space : YUV
Chroma subsampling : 4:2:0
Bit depth : 8 bits
Scan type : Progressive
Compression mode : Lossy
Bits/(Pixel*Frame) : 0.167
Stream size : 864 MiB (92%)
Writing library : DivX 3013
Audio
ID : 1
Format : MPEG Audio
Format version : Version 1
Format profile : Layer 3
Codec ID : 55
Codec ID/Hint : MP3
Duration : 1h 18mn
Bit rate mode : Constant
Bit rate : 128 Kbps
Channel(s) : 2 channels
Sampling rate : 44.1 KHz
Compression mode : Lossy
Stream size : 71.4 MiB (8%)
Alignment : Split accross interleaves
Interleave, duration : 40 ms (1.00 video frame)
Interleave, preload duration : 500 ms


Создавать темы 07-Апр-2012 23:22

[Профиль]  [ЛС] 

aaaaa ®

Стаж: 5 лет 8 месяцев

Сообщений: 64

Исправил

Создавать темы 08-Апр-2012 16:15

[Профиль]  [ЛС] 

victor0778

Стаж: 6 лет 8 месяцев

Сообщений: 1670

Симпатии: 142

aaaaa, поправил за вас

Создавать темы 09-Апр-2012 00:20

[Профиль]  [ЛС] 

aaaaa ®

Стаж: 5 лет 8 месяцев

Сообщений: 64

aaaaa, поправил за вас
Спасибо)

Создавать темы 09-Апр-2012 00:30

[Профиль]  [ЛС] 

aaaaa ®

Стаж: 5 лет 8 месяцев

Сообщений: 64

Fider,
извеняюсь комп прочещял скоро начну)

Создавать темы 22-Апр-2012 19:55

[Профиль]  [ЛС] 

Актам Денмухаммадиев

Стаж: 4 года 8 месяцев

Сообщений: 113

Может раздачу продолжите?...

Создавать темы 09-Мар-2013 21:44

[Профиль]  [ЛС] 

Актам Денмухаммадиев

Стаж: 4 года 8 месяцев

Сообщений: 113

У меня половина загрузки, может продолжите раздачу 13 марта с 15.00 до 21.00 со скоростью не ниже 50 Кб/с ? bq

Создавать темы 12-Мар-2013 22:13

[Профиль]  [ЛС] 
Показать сообщения:    
Ответить на тему

Текущее время: 23-Окт 18:39

Часовой пояс: UTC + 5



Вы не можете начинать темы
Вы не можете отвечать на сообщения
Вы не можете редактировать свои сообщения
Вы не можете удалять свои сообщения
Вы не можете голосовать в опросах
Вы не можете прикреплять файлы к сообщениям
Вы не можете скачивать файлы