Городской исследователь / Urban Explorer (Andy Fetscher) [2011 г., ужасы, триллер, DVDRip]

Ответить на тему
 

JEKSHTERNER ®

Стаж: 5 лет 5 месяцев

Сообщений: 2

Городской исследователь / Urban Explorer- Год выпуска: 2011
Страна: Германия
Жанр: ужасы, триллер
Продолжительность: 01:34:17
Перевод: любительский (одноголосый)
Режиссер: Andy Fetscher
Продюссер: Оливер Тау, Martin Hellstern, Феликс Вендландт
Сценарий: Мартин Тау
Бюджет: $3 000 000
Премьера в мире: 8 апреля 2011
В ролях: Натали Келли , Ник Эверсман , Klaus Stiglmeier
Макс Римельт , Катрин де Леан , Бренда Ку
Adolfo Assor , Johannes Klaussner , Андреас Висневски
Описание: Стремясь исследовать таинственный мир под Берлином, международная группа четырех городских исследователей нанимает местного гида, Криса, который заводит их в лабиринт спасательных туннелей и подземных укреплений под городом. Когда их гид неудачно падает, две девушки из команды отправляются на поиски помощи, а молодой американец Дэнис со своей подругой остаются. Армин, бывший восточногерманский пограничник, появляется из ниоткуда. Отчаявшийся Дэнис позволяет Армину возглавить остатки группы — и это его самая большая в жизни ошибка.
Рейтинг кинопоиск : 5.110 138
Качество: DVDRip
Формат: AVI
Видео кодек: XviD
Аудио кодек: MP3
Видео: Xvid 720x304 24.00fps 2041kbps
Аудио: MPEG Audio Layer 3 48000Hz stereo 128kbps

Media Info

General
Complete name : D:\Torrents\Gorodskoi.issledovatel.2011.Xixidok.avi
Format : AVI
Format/Info : Audio Video Interleave
File size : 1.44 GiB
Duration : 1h 34mn
Overall bit rate : 2 179 Kbps
Writing application : VirtualDubMod 1.5.10.2 (build 2540/release)
Writing library : VirtualDubMod build 2540/release
Video
ID : 0
Format : MPEG-4 Visual
Format profile : Advanced [email protected]
Format settings, BVOP : 2
Format settings, QPel : No
Format settings, GMC : No warppoints
Format settings, Matrix : Default (H.263)
Muxing mode : Packed bitstream
Codec ID : XVID
Codec ID/Hint : XviD
Duration : 1h 34mn
Bit rate : 2 042 Kbps
Width : 720 pixels
Height : 304 pixels
Display aspect ratio : 2.35:1
Frame rate : 24.000 fps
Color space : YUV
Chroma subsampling : 4:2:0
Bit depth : 8 bits
Scan type : Progressive
Compression mode : Lossy
Bits/(Pixel*Frame) : 0.389
Stream size : 1.34 GiB (94%)
Writing library : XviD 64
Audio
ID : 1
Format : MPEG Audio
Format version : Version 1
Format profile : Layer 3
Codec ID : 55
Codec ID/Hint : MP3
Duration : 1h 34mn
Bit rate mode : Constant
Bit rate : 128 Kbps
Channel(s) : 2 channels
Sampling rate : 48.0 KHz
Compression mode : Lossy
Stream size : 86.3 MiB (6%)
Alignment : Aligned on interleaves
Interleave, duration : 42 ms (1.00 video frame)
Interleave, preload duration : 504 ms

Скриншоты

Создавать темы 08-Апр-2012 00:26

[Профиль]  [ЛС] 

Mixer City

Стаж: 6 лет 8 месяцев

Сообщений: 754

Симпатии: 63

JEKSHTERNER, постеры и скриншоты сюда: http://tas-ix.net/gallery.php, мне их не видно.

Создавать темы 08-Апр-2012 12:50

[Профиль]  [ЛС] 
Показать сообщения:    
Ответить на тему

Текущее время: 23-Авг 07:32

Часовой пояс: UTC + 5



Вы не можете начинать темы
Вы не можете отвечать на сообщения
Вы не можете редактировать свои сообщения
Вы не можете удалять свои сообщения
Вы не можете голосовать в опросах
Вы не можете прикреплять файлы к сообщениям
Вы не можете скачивать файлы