WWE Friday Night Smackdown 2012/04/06 [2012 г., Рестлинг, HDTV]

Ответить на тему
 

Спартанец ®

Стаж: 5 лет 6 месяцев

Сообщений: 361

WWE Friday Night Smackdown 2012/04/06
Год выпуска: 2012
Вид спорта: Рестлинг
Участники: Звезды WWE
Продолжительность: 01.18.31
Комментарий: профессиональный (многоголосый, закадровый)
Язык комментариев: русский (любительский)
Описание: Один из пятничных вечеров в Smackdown. Выпуск от 6-го апреля 2012 года
Качество: HDTV
Формат: Mр4
Видео кодек: MPEG4
Видео: MPEG4 Video (H264) 720x480 25fps
Аудио: AAC 44100Hz stereo 1411kbps

Кард

Handicap Match: Mark Henry and David Otunga vs. R Truth
No DQ Match: Randy Orton vs. Kane
The Ryback Appears
Non-Title Match: Heath Slater vs. The Big Show
Non-Title Match: Nikki Bella vs. Beth Phoenix
Non-Title Match: Alberto Del Rio vs. Sheamus

MediaInfo

General
Format : MPEG-4
Format profile : Base Media / Version 2
Codec ID : mp42
File size : 892 MiB
Duration : 1h 18mn
Overall bit rate : 1 588 Kbps
Encoded date : UTC 2012-04-05 18:31:46
Tagged date : UTC 2012-04-05 18:31:46
Video
ID : 1
Format : AVC
Format/Info : Advanced Video Codec
Format profile : [email protected]
Format settings, CABAC : Yes
Format settings, ReFrames : 4 frames
Codec ID : avc1
Codec ID/Info : Advanced Video Coding
Duration : 1h 18mn
Source duration : 1h 18mn
Bit rate mode : Variable
Bit rate : 1 532 Kbps
Width : 720 pixels
Height : 480 pixels
Display aspect ratio : 3:2
Frame rate mode : Constant
Frame rate : 25.000 fps
Standard : PAL
Color space : YUV
Chroma subsampling : 4:2:0
Bit depth : 8 bits
Scan type : Progressive
Bits/(Pixel*Frame) : 0.177
Stream size : 860 MiB (96%)
Source stream size : 860 MiB
Language : English
Encoded date : UTC 2012-04-05 18:31:46
Tagged date : UTC 2012-04-05 18:31:46
Color primaries : BT.470-6 System B, BT.470-6 System G, BT.601-6 625, BT.1358 625, BT.1700 625 PAL, BT.1700 625 SECAM
Transfer characteristics : BT.470-6 System B, BT.470-6 System G
Matrix coefficients : BT.470-6 System B, BT.470-6 System G, BT.601-6 625, BT.1358 625, BT.1700 625 PAL, BT.1700 625 SECAM, IEC 61966-2-4 601
Audio
ID : 2
Format : AAC
Format/Info : Advanced Audio Codec
Format profile : LC
Codec ID : 40
Duration : 1h 18mn
Source duration : 1h 18mn
Bit rate mode : Constant
Bit rate : 53.6 Kbps
Channel(s) : 2 channels
Channel positions : Front: L R
Sampling rate : 44.1 KHz
Compression mode : Lossy
Stream size : 30.1 MiB (3%)
Source stream size : 30.1 MiB
Language : English
Encoded date : UTC 2012-04-05 18:31:46
Tagged date : UTC 2012-04-05 18:31:46

Скриншоты

Создавать темы 08-Апр-2012 14:40

[Профиль]  [ЛС] 

aaaaa

Стаж: 5 лет 6 месяцев

Сообщений: 64

Спартанец спасибо всгеда во время заливаеш )))

Создавать темы 08-Апр-2012 14:43

[Профиль]  [ЛС] 

aaaaa

Стаж: 5 лет 6 месяцев

Сообщений: 64

О альберт дель рио вернулся))

Создавать темы 08-Апр-2012 14:44

[Профиль]  [ЛС] 

Спартанец ®

Стаж: 5 лет 6 месяцев

Сообщений: 361

Та не за что )) Стараюсь своевременно выкладывать выпуски ))

Создавать темы 08-Апр-2012 15:38

[Профиль]  [ЛС] 

gufik

Стаж: 5 лет 4 месяца

Сообщений: 1

ппц че не качает на TORRENте?

Создавать темы 21-Май-2012 18:54

[Профиль]  [ЛС] 
Показать сообщения:    
Ответить на тему

Текущее время: 17-Авг 20:40

Часовой пояс: UTC + 5



Вы не можете начинать темы
Вы не можете отвечать на сообщения
Вы не можете редактировать свои сообщения
Вы не можете удалять свои сообщения
Вы не можете голосовать в опросах
Вы не можете прикреплять файлы к сообщениям
Вы не можете скачивать файлы