WWE Monday Night Raw 2012/04/09 [2012 г., Рестлинг, HDTV]

Ответить на тему
 

Спартанец ®

Стаж: 5 лет 9 месяцев

Сообщений: 361

WWE Monday Night Raw 2012/04/09
Год выпуска: 2012
Вид спорта: Рестлинг
Участники: Звезды WWE
Продолжительность: 01.28.33
Комментарий: профессиональный (многоголосый, закадровый)
Язык комментариев: английский
Описание: Еженедельный выпуск RAW. Выпуск от 9-го апреля 2012 года
Качество: HDTV
Формат: Mр4
Видео кодек: MPEG4
Видео: MPEG4 Video (H264) 704x400 29.97fps
Аудио: AAC 48000Hz stereo 1536kbps

MediaInfo

General
Рестлинг\wwe_monday_night_raw_09_04_2012_[tfile.ru].mp4
Format : MPEG-4
Format profile : Base Media / Version 2
Codec ID : mp42
File size : 1.03 GiB
Duration : 1h 28mn
Overall bit rate mode : Variable
Overall bit rate : 1 666 Kbps
Encoded date : UTC 2011-09-08 11:43:25
Tagged date : UTC 2011-09-08 11:43:25
Video
ID : 1
Format : AVC
Format/Info : Advanced Video Codec
Format profile : [email protected]
Format settings, CABAC : Yes
Format settings, ReFrames : 4 frames
Codec ID : avc1
Codec ID/Info : Advanced Video Coding
Duration : 1h 28mn
Bit rate : 1 437 Kbps
Width : 704 pixels
Height : 400 pixels
Display aspect ratio : 16:9
Frame rate mode : Constant
Frame rate : 29.970 fps
Color space : YUV
Chroma subsampling : 4:2:0
Bit depth : 8 bits
Scan type : Progressive
Bits/(Pixel*Frame) : 0.170
Stream size : 910 MiB (86%)
Writing library : x264 core 122 r2183 c522ad1
Encoding settings : cabac=1 / ref=5 / deblock=1:0:0 / analyse=0x3:0x113 / me=umh / subme=9 / psy=1 / psy_rd=1.00:0.00 / mixed_ref=1 / me_range=16 / chroma_me=1 / trellis=1 / 8x8dct=1 / cqm=0 / deadzone=21,11 / fast_pskip=1 / chroma_qp_offset=-2 / threads=12 / sliced_threads=0 / nr=0 / decimate=1 / interlaced=0 / bluray_compat=0 / constrained_intra=0 / bframes=3 / b_pyramid=1 / b_adapt=2 / b_bias=0 / direct=3 / weightb=1 / open_gop=0 / weightp=2 / keyint=300 / keyint_min=30 / scenecut=40 / intra_refresh=0 / rc_lookahead=40 / rc=crf / mbtree=1 / crf=19.0 / qcomp=0.60 / qpmin=0 / qpmax=69 / qpstep=4 / vbv_maxrate=1500 / vbv_bufsize=1450 / crf_max=0.0 / nal_hrd=none / ip_ratio=1.40 / aq=1:1.00
Encoded date : UTC 2011-09-08 11:43:25
Tagged date : UTC 2011-09-08 11:43:25
Audio
ID : 2
Format : AAC
Format/Info : Advanced Audio Codec
Format profile : LC
Codec ID : 40
Duration : 1h 28mn
Bit rate mode : Variable
Bit rate : 192 Kbps
Channel(s) : 2 channels
Channel positions : Front: L R
Sampling rate : 48.0 KHz
Compression mode : Lossy
Stream size : 120 MiB (11%)
Encoded date : UTC 2011-09-08 11:43:25
Tagged date : UTC 2011-09-08 11:43:25

Kaрд

Santino Marella and Brodus Clay vs. Dolph Ziggler and Jack Swagger
R-Truth vs. Cody Rhodes
Lord Tensai vs. Yoshi Tatsu
Mark Henry vs. CM Punk
Alberto Del Rio vs. Zack Ryder
John Cena vs. David Otunga

Скриншоты

Создавать темы 11-Апр-2012 20:21

[Профиль]  [ЛС] 

rey mysterio

Стаж: 5 лет 10 месяцев

Сообщений: 164

спс

Создавать темы 11-Апр-2012 20:39

[Профиль]  [ЛС] 

aaaaa

Стаж: 5 лет 9 месяцев

Сообщений: 64

Mark Henry vs. CM Punk
этот за званиние чемпиона WWE??

Создавать темы 11-Апр-2012 20:48

[Профиль]  [ЛС] 

rey mysterio

Стаж: 5 лет 10 месяцев

Сообщений: 164

Да скорее всего

Создавать темы 11-Апр-2012 20:56

[Профиль]  [ЛС] 

Спартанец ®

Стаж: 5 лет 9 месяцев

Сообщений: 361

Это прихоть Лоуринайтиса. Его месть Панку за его неуважение к себе )))

Создавать темы 11-Апр-2012 21:42

[Профиль]  [ЛС] 

aaaaa

Стаж: 5 лет 9 месяцев

Сообщений: 64

Cпартанец можешь дать раздачу до завтрешнего утра?

Создавать темы 11-Апр-2012 22:27

[Профиль]  [ЛС] 

Спартанец ®

Стаж: 5 лет 9 месяцев

Сообщений: 361

Могу. Если модераторы проверят положительно раздачу.

Создавать темы 11-Апр-2012 22:43

[Профиль]  [ЛС] 

rey mysterio

Стаж: 5 лет 10 месяцев

Сообщений: 164

Скачал терь я на раздаче с утра до 00:00

Создавать темы 12-Апр-2012 11:52

[Профиль]  [ЛС] 

aaaaa

Стаж: 5 лет 9 месяцев

Сообщений: 64

Cпс за раздачу

Создавать темы 12-Апр-2012 12:02

[Профиль]  [ЛС] 

rey mysterio

Стаж: 5 лет 10 месяцев

Сообщений: 164

Brock Lesnar крыса настоящая

Создавать темы 12-Апр-2012 14:05

[Профиль]  [ЛС] 

Kroys

Стаж: 6 лет 1 месяц

Сообщений: 187

Симпатии: 1

буду качать

Создавать темы 13-Апр-2012 10:40

[Профиль]  [ЛС] 

Kroys

Стаж: 6 лет 1 месяц

Сообщений: 187

Симпатии: 1

Эх Сина-Сина ))))

Создавать темы 21-Апр-2012 10:19

[Профиль]  [ЛС] 
Показать сообщения:    
Ответить на тему

Текущее время: 22-Ноя 15:41

Часовой пояс: UTC + 5



Вы не можете начинать темы
Вы не можете отвечать на сообщения
Вы не можете редактировать свои сообщения
Вы не можете удалять свои сообщения
Вы не можете голосовать в опросах
Вы не можете прикреплять файлы к сообщениям
Вы не можете скачивать файлы