WWE Hell IN A Cell 2011 [2011 г., Рестлинг, HDTV]

Страницы :  1, 2  След.

Ответить на тему
 

Спартанец ®

Стаж: 5 лет 9 месяцев

Сообщений: 361

WWE Hell IN A Cell 2011
Год выпуска: 2011
Вид спорта: Рестлинг
Участники: Звезды WWE
Продолжительность: 02.37.37
Комментарий: профессиональный (многоголосый, закадровый)
Язык комментариев: английский
Описание: Титульные матчи звезд WWE
Качество: HDTV
Формат: Mp4
Видео кодек: MPEG4
Видео: MPEG4 Video (H264) 704x400 29.97fps; Bit rate : 1 476 Kbps
Аудио: AAC 48000Hz stereo 1536kbps; Bit rate : 192 Kbps

MediaInfo

General
Format : MPEG-4
Format profile : Base Media
Codec ID : isom
File size : 1.84 GiB
Duration : 2h 37mn
Overall bit rate mode : Variable
Overall bit rate : 1 670 Kbps
Encoded date : UTC 2011-10-03 04:47:41
Tagged date : UTC 2011-10-03 04:47:41
Video
ID : 1
Format : AVC
Format/Info : Advanced Video Codec
Format profile : [email protected]
Format settings, CABAC : Yes
Format settings, ReFrames : 4 frames
Codec ID : avc1
Codec ID/Info : Advanced Video Coding
Duration : 2h 37mn
Bit rate : 1 476 Kbps
Maximum bit rate : 2 382 Kbps
Width : 704 pixels
Height : 400 pixels
Display aspect ratio : 16:9
Frame rate mode : Constant
Frame rate : 29.970 fps
Color space : YUV
Chroma subsampling : 4:2:0
Bit depth : 8 bits
Scan type : Progressive
Bits/(Pixel*Frame) : 0.175
Stream size : 1.62 GiB (88%)
Writing library : x264 core 88 r1471 1144615
Encoding settings : cabac=1 / ref=5 / deblock=1:0:0 / analyse=0x3:0x113 / me=umh / subme=9 / psy=1 / psy_rd=1.00:0.00 / mixed_ref=1 / me_range=16 / chroma_me=1 / trellis=1 / 8x8dct=1 / cqm=0 / deadzone=21,11 / fast_pskip=1 / chroma_qp_offset=-2 / threads=12 / sliced_threads=0 / nr=0 / decimate=1 / mbaff=0 / constrained_intra=0 / bframes=3 / b_pyramid=1 / b_adapt=2 / b_bias=0 / direct=3 / wpredb=1 / wpredp=2 / keyint=300 / keyint_min=30 / scenecut=40 / intra_refresh=0 / rc_lookahead=40 / rc=crf / mbtree=1 / crf=19.0 / qcomp=0.60 / qpmin=10 / qpmax=51 / qpstep=4 / vbv_maxrate=1500 / vbv_bufsize=1450 / ip_ratio=1.40 / aq=1:1.00
Encoded date : UTC 2011-10-03 04:47:41
Tagged date : UTC 2011-10-03 04:48:08
Audio
ID : 2
Format : AAC
Format/Info : Advanced Audio Codec
Format profile : LC
Codec ID : 40
Duration : 2h 37mn
Bit rate mode : Variable
Bit rate : 192 Kbps
Maximum bit rate : 201 Kbps
Channel(s) : 2 channels
Channel positions : Front: L R
Sampling rate : 48.0 KHz
Compression mode : Lossy
Stream size : 214 MiB (11%)
Encoded date : UTC 2011-10-03 04:48:05
Tagged date : UTC 2011-10-03 04:48:08

Kaрд

Triple Threat Hell in a Cell match for the WWE Championship
John Cena (c) vs. CM Punk vs. Alberto Del Rio
Hell in a Cell match for the World Heavyweight Championship
Randy Orton vs. Mark Henry (c)
Singles match
Christian vs. Sheamus
Singles match for the WWE Divas Championship
Kelly Kelly (c) vs. Beth Phoenix
Singles match to determine which keeps the Ring Name of 'Sin Cara'
Sin Cara (Black mask) vs. Sin Cara (Blue mask)
Tag team match for the WWE Tag Team Championship
Air Boom (Evan Bourne & Kofi Kingston) (c) vs. Dolph Ziggler & Jack Swagger

Скриншоты

Создавать темы 12-Апр-2012 18:25

[Профиль]  [ЛС] 

Спартанец ®

Стаж: 5 лет 9 месяцев

Сообщений: 361

Кто-то спрашивал :)

Создавать темы 12-Апр-2012 18:27

[Профиль]  [ЛС] 

aaaaa

Стаж: 5 лет 9 месяцев

Сообщений: 64

ВО Спартанец спасибо давно ждал))

Создавать темы 12-Апр-2012 18:27

[Профиль]  [ЛС] 

rey mysterio

Стаж: 5 лет 10 месяцев

Сообщений: 164

Лучше 2010 закинь)) интересней

Создавать темы 12-Апр-2012 19:47

[Профиль]  [ЛС] 

aaaaa

Стаж: 5 лет 9 месяцев

Сообщений: 64

ппц уже 4 сида!

Создавать темы 12-Апр-2012 19:48

[Профиль]  [ЛС] 

Kroys

Стаж: 6 лет 1 месяц

Сообщений: 187

Симпатии: 1

воооо)

Создавать темы 13-Апр-2012 10:36

[Профиль]  [ЛС] 

Kroys

Стаж: 6 лет 1 месяц

Сообщений: 187

Симпатии: 1

что то по скриншотам я не вижу Хелл ин а Целл )

Создавать темы 13-Апр-2012 10:36

[Профиль]  [ЛС] 

The Game

Стаж: 5 лет 8 месяцев

Сообщений: 80

Симпатии: 1

Спасибо Спартанец

Создавать темы 13-Апр-2012 16:10

[Профиль]  [ЛС] 

aaaaa

Стаж: 5 лет 9 месяцев

Сообщений: 64

Kroys,
Дель рио сиэм панк и сина дерутся в клетке

Создавать темы 13-Апр-2012 17:02

[Профиль]  [ЛС] 

Спартанец ®

Стаж: 5 лет 9 месяцев

Сообщений: 361

да ) я сильно не старался скриншотами смысл уловить, просто сфоткал что попалось.

Создавать темы 13-Апр-2012 18:21

[Профиль]  [ЛС] 

rey mysterio

Стаж: 5 лет 10 месяцев

Сообщений: 164

да ) я сильно не старался скриншотами смысл уловить, просто сфоткал что попалось.
Дель Рио Выиграет крысёныш((

Создавать темы 13-Апр-2012 19:56

[Профиль]  [ЛС] 

Kroys

Стаж: 6 лет 1 месяц

Сообщений: 187

Симпатии: 1

Спартанец , как просил уже , если найдёш про Гробовщика заливай окай ?) плизз ) заранее спс)

Создавать темы 14-Апр-2012 01:08

[Профиль]  [ЛС] 

Спартанец ®

Стаж: 5 лет 9 месяцев

Сообщений: 361

ок )

Создавать темы 14-Апр-2012 04:44

[Профиль]  [ЛС] 

RokC

Стаж: 5 лет 10 месяцев

Сообщений: 56

давайте предложим отдельный раздел фанов каких-либо суперстаров реслинга там типо Undertaker. HBK. Cena ну и т.д

Создавать темы 17-Апр-2012 20:34

[Профиль]  [ЛС] 

Спартанец ®

Стаж: 5 лет 9 месяцев

Сообщений: 361

давайте предложим отдельный раздел фанов каких-либо суперстаров реслинга там типо Undertaker. HBK. Cena ну и т.д
У меня к примеру нет любимцев среди рестлеров )) Я за красивый бой, значит не учавствую в предложении )))

Создавать темы 17-Апр-2012 20:35

[Профиль]  [ЛС] 
Показать сообщения:    
Ответить на тему

Текущее время: 22-Ноя 20:01

Часовой пояс: UTC + 5



Вы не можете начинать темы
Вы не можете отвечать на сообщения
Вы не можете редактировать свои сообщения
Вы не можете удалять свои сообщения
Вы не можете голосовать в опросах
Вы не можете прикреплять файлы к сообщениям
Вы не можете скачивать файлы