Опасный метод / A Dangerous Method (Дэвид Кроненберг) [2011 г., Триллер, драма, биография, BDRip 720p]

Ответить на тему
 

basma4 ®

Стаж: 7 лет 9 месяцев

Сообщений: 74

Симпатии: 19

Опасный метод / A Dangerous Method
--
Год выпуска: 2011-Страна: Германия, Канада, Великобритания, Швейцария, Recorded Picture Company-Жанр: Триллер, драма, биография-Продолжительность: 01:39:14-Перевод: Дублированный (лицензия)--Режиссер: Дэвид Кроненберг
Продюссер: Джереми Томас, Тиана Александра, Питер Уотсон
Сценарий: Кристофер Хэмптон, Джон Керр--В ролях: Кира Найтли, Вигго Мортенсен, Майкл Фассбендер, Венсан Кассель, Сара Гэйдон, Андре Хеннике, Арндт Шверинг-Сонри, Миньон Реме, Мареике Карьер, Франциска Арндт-Описание: Сюжет закручен вокруг персон основателей психоанализа Карла Густава Юнга и Зигмунда Фрейда и их сложных взаимоотношений с умной и красивой пациенткой Сабиной Шпильрейн.--Дополнительаня информация:
Бюджет: €15 000 000
Премьера в мире: 2 сентября 2011- --Качество: BDRip 720p
Формат: MKV
Видео кодек: H.26x
Аудио кодек: AC3 / DTS

Видео: MPEG-4 AVC, 4996 Кбит/с, 1280x692, 23.976 кадр/с
Аудио: Русский (AC3, 6 ch, 448 Кбит/с), английский (DTS, 6 ch, 1510 Кбит/с)
Субтитры: Русские, английские--

КАДРЫ ИЗ ФИЛЬМА:



MediaInfo

E:\kino\HD\Opasnyj.metod.2011.x264.BDRip.720p.mkv
General
Unique ID : 220010748518441155490451082144993137991 (0xA5848763C0F647EE98D064AD221E5547)
Complete name : E:\kino\HD\Opasnyj.metod.2011.x264.BDRip.720p.mkv
Format : Matroska
Format version : Version 2
File size : 4.30 GiB
Duration : 1h 39mn
Overall bit rate : 6 207 Kbps
Movie name : Opasnyj.metod.2011.D.BDRip.720p.ELEKTRI4KA
Encoded date : UTC 2012-04-10 15:07:38
Writing application : mkvmerge v5.3.0 ('I could have danced') built on Feb 9 2012 10:38:07
Writing library : libebml v1.2.3 + libmatroska v1.3.0
Video #1
ID : 1
Format : AVC
Format/Info : Advanced Video Codec
Format profile : [email protected]
Format settings, CABAC : Yes
Format settings, ReFrames : 9 frames
Codec ID : V_MPEG4/ISO/AVC
Duration : 1h 39mn
Bit rate : 4 996 Kbps
Width : 1 280 pixels
Height : 692 pixels
Display aspect ratio : 1.850
Frame rate : 24.000 fps
Color space : YUV
Chroma subsampling : 4:2:0
Bit depth : 8 bits
Scan type : Progressive
Bits/(Pixel*Frame) : 0.235
Stream size : 3.46 GiB (80%)
Title : Opasnyj.metod.2011.D.BDRip.720p.ELEKTRI4KA
Writing library : x264 core 120 r2146 bcd41db
Encoding settings : cabac=1 / ref=9 / deblock=1:-3:-3 / analyse=0x3:0x133 / me=umh / subme=9 / psy=1 / psy_rd=1.20:0.15 / mixed_ref=1 / me_range=16 / chroma_me=1 / trellis=2 / 8x8dct=1 / cqm=0 / deadzone=21,11 / fast_pskip=0 / chroma_qp_offset=-3 / threads=12 / sliced_threads=0 / nr=0 / decimate=0 / interlaced=0 / bluray_compat=0 / constrained_intra=0 / bframes=8 / b_pyramid=2 / b_adapt=2 / b_bias=0 / direct=3 / weightb=1 / open_gop=0 / weightp=2 / keyint=250 / keyint_min=24 / scenecut=40 / intra_refresh=0 / rc=crf / mbtree=0 / crf=17.3 / qcomp=0.60 / qpmin=10 / qpmax=51 / qpstep=4 / ip_ratio=1.40 / pb_ratio=1.30 / aq=1:0.70
Language : English
Audio #2
ID : 2
Format : AC-3
Format/Info : Audio Coding 3
Mode extension : CM (complete main)
Codec ID : A_AC3
Duration : 1h 39mn
Bit rate mode : Constant
Bit rate : 448 Kbps
Channel(s) : 6 channels
Channel positions : Front: L C R, Side: L R, LFE
Sampling rate : 48.0 KHz
Bit depth : 16 bits
Compression mode : Lossy
Delay relative to video : 14ms
Stream size : 318 MiB (7%)
Language : Russian
Audio #3
ID : 3
Format : AC-3
Format/Info : Audio Coding 3
Mode extension : CM (complete main)
Codec ID : A_AC3
Duration : 1h 39mn
Bit rate mode : Constant
Bit rate : 640 Kbps
Channel(s) : 6 channels
Channel positions : Front: L C R, Side: L R, LFE
Sampling rate : 48.0 KHz
Bit depth : 16 bits
Compression mode : Lossy
Stream size : 454 MiB (10%)
Language : English
Text #4
ID : 4
Format : UTF-8
Codec ID : S_TEXT/UTF8
Codec ID/Info : UTF-8 Plain Text
Language : Russian
Text #5
ID : 5
Format : UTF-8
Codec ID : S_TEXT/UTF8
Codec ID/Info : UTF-8 Plain Text
Language : English

x264 log

x264 [info]: frame I:1143 Avg QP:13.21 size:191294
x264 [info]: frame P:26052 Avg QP:15.92 size: 66790
x264 [info]: frame B:115845 Avg QP:19.10 size: 16547
x264 [info]: consecutive B-frames: 1.1% 0.7% 2.5% 15.5% 15.1% 35.4% 11.9% 14.5% 3.1%
x264 [info]: mb I I16..4: 2.4% 76.9% 20.7%
x264 [info]: mb P I16..4: 0.3% 5.6% 1.1% P16..4: 33.4% 33.2% 21.8% 0.0% 0.0% skip: 4.6%
x264 [info]: mb B I16..4: 0.0% 0.5% 0.1% B16..8: 39.6% 13.1% 4.6% direct: 5.4% skip:36.8% L0:46.2% L1:43.3% BI:10.5%
x264 [info]: 8x8 transform intra:78.6% inter:55.0%
x264 [info]: direct mvs spatial:99.2% temporal:0.8%
x264 [info]: coded y,uvDC,uvAC intra: 92.4% 86.6% 71.6% inter: 30.7% 18.3% 6.3%
x264 [info]: i16 v,h,dc,p: 48% 15% 19% 18%
x264 [info]: i8 v,h,dc,ddl,ddr,vr,hd,vl,hu: 14% 10% 12% 9% 12% 11% 11% 10% 11%
x264 [info]: i4 v,h,dc,ddl,ddr,vr,hd,vl,hu: 31% 8% 6% 7% 10% 9% 10% 8% 10%
x264 [info]: i8c dc,h,v,p: 50% 19% 17% 14%
x264 [info]: Weighted P-Frames: Y:2.3% UV:0.5%
x264 [info]: ref P L0: 37.4% 8.5% 20.8% 7.5% 8.1% 5.0% 6.0% 2.9% 3.6% 0.1% 0.0%
x264 [info]: ref B L0: 65.6% 14.2% 7.3% 4.4% 3.2% 2.9% 1.7% 0.6%
x264 [info]: ref B L1: 91.5% 8.5%

Создавать темы 14-Апр-2012 11:59

[Профиль]  [ЛС] 

Сообщения из этой темы были выделены в отдельный топик Флуд

Pendalf

Создавать темы 14-Апр-2012 17:21

 

Skelfer

Стаж: 6 лет 6 месяцев

Сообщений: 70

Симпатии: 1

Дайте скорость плз!!(

Создавать темы 26-Апр-2012 22:09

[Профиль]  [ЛС] 

federal

Стаж: 7 лет 7 месяцев

Сообщений: 29

дайте скорость!!!

Создавать темы 01-Июл-2012 19:01

[Профиль]  [ЛС] 

federal

Стаж: 7 лет 7 месяцев

Сообщений: 29

ребят, вы чё? встаньте кто нибудь на нормальную раздачу!

Создавать темы 05-Июл-2012 14:18

[Профиль]  [ЛС] 

157953

Стаж: 5 лет 7 месяцев

Сообщений: 3

скорость

Создавать темы 14-Фев-2015 21:54

[Профиль]  [ЛС] 
Показать сообщения:    
Ответить на тему

Текущее время: 22-Окт 13:01

Часовой пояс: UTC + 5



Вы не можете начинать темы
Вы не можете отвечать на сообщения
Вы не можете редактировать свои сообщения
Вы не можете удалять свои сообщения
Вы не можете голосовать в опросах
Вы не можете прикреплять файлы к сообщениям
Вы не можете скачивать файлы