WWE The Vintage Collection 01.08.2010 [2010 г., Рестлинг, HDTV]

Ответить на тему
 

Спартанец ®

Стаж: 5 лет 8 месяцев

Сообщений: 361

WWE The Vintage Collection 01.08.2010
Год выпуска: 2010
Вид спорта: Рестлинг
Участники: Звезды WWE
Продолжительность: 00.44.00
Комментарий: профессиональный (двухголосый)
Язык комментариев: английский
Описание: Несколько отличных боев, ставшими классикой мирового Реслинга
Качество: HDTV
Формат: AVI
Видео кодек: XviD
Аудио кодек: MP3
Видео: Xvid 624x352 25fps ~989 Kbps
Аудио: MPEG Audio Layer 3 48000Hz stereo ~128 kbps

MediaInfo

General
Format : AVI
Format/Info : Audio Video Interleave
File size : 350 MiB
Duration : 44mn 0s
Overall bit rate mode : Variable
Overall bit rate : 1 111 Kbps
Writing application : VirtualDubMod 1.5.10.2 (build 2540/release)
Writing library : VirtualDubMod build 2540/release
Video
ID : 0
Format : MPEG-4 Visual
Format profile : Advanced [email protected]
Format settings, BVOP : 2
Format settings, QPel : No
Format settings, GMC : No warppoints
Format settings, Matrix : Default (H.263)
Codec ID : XVID
Codec ID/Hint : XviD
Duration : 44mn 0s
Bit rate : 989 Kbps
Width : 624 pixels
Height : 352 pixels
Display aspect ratio : 16:9
Frame rate : 25.000 fps
Color space : YUV
Chroma subsampling : 4:2:0
Bit depth : 8 bits
Scan type : Progressive
Compression mode : Lossy
Bits/(Pixel*Frame) : 0.180
Stream size : 311 MiB (89%)
Writing library : XviD 1.2.0.dev47 (UTC 2006-11-01)
Audio
ID : 1
Format : MPEG Audio
Format version : Version 1
Format profile : Layer 3
Mode : Joint stereo
Mode extension : MS Stereo
Codec ID : 55
Codec ID/Hint : MP3
Duration : 44mn 0s
Bit rate mode : Variable
Bit rate : 109 Kbps
Nominal bit rate : 128 Kbps
Channel(s) : 2 channels
Sampling rate : 48.0 KHz
Compression mode : Lossy
Stream size : 34.4 MiB (10%)
Alignment : Aligned on interleaves
Interleave, duration : 24 ms (0.60 video frame)
Interleave, preload duration : 498 ms
Writing library : LAME3.90.
Encoding settings : -m j -V 4 -q 2 -lowpass 17.6 --abr 128

Kaрд

HBK Vs Bret "Hitman" Hart

Скриншоты



Последний раз редактировалось: Спартанец (2012-04-19 06:58), всего редактировалось 1 раз

Создавать темы 17-Апр-2012 18:56

[Профиль]  [ЛС] 

RokC

Стаж: 5 лет 9 месяцев

Сообщений: 56

Спартанец ты золото, а не человек огромное спасибо!!!!!!

Создавать темы 17-Апр-2012 20:28

[Профиль]  [ЛС] 

Спартанец ®

Стаж: 5 лет 8 месяцев

Сообщений: 361

Спартанец ты золото, а не человек огромное спасибо!!!!!!
Да не за что ) Все для вас :)

Создавать темы 17-Апр-2012 20:36

[Профиль]  [ЛС] 

ygapHuK

Стаж: 5 лет 8 месяцев

Сообщений: 153

Давай ,Спартанец,развиваем раздел "Спорт")

Создавать темы 17-Апр-2012 20:47

[Профиль]  [ЛС] 

Спартанец ®

Стаж: 5 лет 8 месяцев

Сообщений: 361

Давай ,Спартанец,развиваем раздел "Спорт")
Cтараемся :)

Создавать темы 17-Апр-2012 21:35

[Профиль]  [ЛС] 

aaaaa

Стаж: 5 лет 8 месяцев

Сообщений: 64

Предлгаю уже сделать раздел Рестлинг(WWE),и спартанца сделать модером отдела)))

Создавать темы 17-Апр-2012 21:48

[Профиль]  [ЛС] 

Спартанец ®

Стаж: 5 лет 8 месяцев

Сообщений: 361

Предлгаю уже сделать раздел Рестлинг(WWE),и спартанца сделать модером отдела)))
tu

Создавать темы 17-Апр-2012 22:16

[Профиль]  [ЛС] 

Vovo4ka

Стаж: 6 лет 3 месяца

Сообщений: 160

Симпатии: 11

Во вот это вещь. Спасибо

Создавать темы 17-Апр-2012 23:30

[Профиль]  [ЛС] 

Kroys

Стаж: 6 лет

Сообщений: 187

Симпатии: 1

что здесь ? норм бои ?

Создавать темы 18-Апр-2012 00:49

[Профиль]  [ЛС] 

Undertaker

Стаж: 5 лет 9 месяцев

Сообщений: 30

само собой тут гробовщик молодой еще, да еще и его клон)

Создавать темы 18-Апр-2012 21:51

[Профиль]  [ЛС] 

Спартанец ®

Стаж: 5 лет 8 месяцев

Сообщений: 361

Маленькая поправочка в "Карде" )) Здесь бой Брет Харда против Шона Майклза

Создавать темы 19-Апр-2012 06:59

[Профиль]  [ЛС] 

slap_nuts

Стаж: 7 лет 4 месяца

Сообщений: 85

Гамаю SEGA )))

Создавать темы 19-Апр-2012 08:20

[Профиль]  [ЛС] 

Спартанец ®

Стаж: 5 лет 8 месяцев

Сообщений: 361

Раритетный катридж ? ))) РМ 10 ? )))

Создавать темы 19-Апр-2012 17:47

[Профиль]  [ЛС] 
Показать сообщения:    
Ответить на тему

Текущее время: 24-Окт 00:06

Часовой пояс: UTC + 5



Вы не можете начинать темы
Вы не можете отвечать на сообщения
Вы не можете редактировать свои сообщения
Вы не можете удалять свои сообщения
Вы не можете голосовать в опросах
Вы не можете прикреплять файлы к сообщениям
Вы не можете скачивать файлы