WWE Friday Night Smackdown 2012/04/13 [2012 г., Рестлинг, HDTV]

Ответить на тему
 

Спартанец ®

Стаж: 5 лет 8 месяцев

Сообщений: 361

WWE Friday Night Smackdown 2012/04/13
Год выпуска: 2012
Вид спорта: Рестлинг
Участники: Звезды WWE
Продолжительность: 01.21.59
Комментарий: профессиональный (многоголосый, закадровый)
Язык комментариев: английский
Описание: Один из пятничных вечеров в Smackdown. Выпуск от 13-го апреля 2012 года
Качество: HDTV
Формат: Mр4
Видео кодек: x264
Аудио кодек: AAC-LC
Видео: x264, 704x400, 29.97fps, 1420 Kbps
Аудио: AAC, 48000Hz, 2ch (stereo), 192 kbps

MediaInfo

General
Format : MPEG-4
Format profile : Base Media / Version 2
Codec ID : mp42
File size : 969 MiB
Duration : 1h 21mn
Overall bit rate mode : Variable
Overall bit rate : 1 652 Kbps
Encoded date : UTC 2011-09-08 11:43:25
Tagged date : UTC 2011-09-08 11:43:25
Video
ID : 1
Format : AVC
Format/Info : Advanced Video Codec
Format profile : [email protected]
Format settings, CABAC : Yes
Format settings, ReFrames : 4 frames
Codec ID : avc1
Codec ID/Info : Advanced Video Coding
Duration : 1h 21mn
Bit rate : 1 420 Kbps
Width : 704 pixels
Height : 400 pixels
Display aspect ratio : 16:9
Frame rate mode : Constant
Frame rate : 29.970 fps
Color space : YUV
Chroma subsampling : 4:2:0
Bit depth : 8 bits
Scan type : Progressive
Bits/(Pixel*Frame) : 0.168
Stream size : 832 MiB (86%)
Writing library : x264 core 122 r2183 c522ad1
Encoding settings : cabac=1 / ref=5 / deblock=1:0:0 / analyse=0x3:0x113 / me=umh / subme=9 / psy=1 / psy_rd=1.00:0.00 / mixed_ref=1 / me_range=16 / chroma_me=1 / trellis=1 / 8x8dct=1 / cqm=0 / deadzone=21,11 / fast_pskip=1 / chroma_qp_offset=-2 / threads=12 / sliced_threads=0 / nr=0 / decimate=1 / interlaced=0 / bluray_compat=0 / constrained_intra=0 / bframes=3 / b_pyramid=1 / b_adapt=2 / b_bias=0 / direct=3 / weightb=1 / open_gop=0 / weightp=2 / keyint=300 / keyint_min=30 / scenecut=40 / intra_refresh=0 / rc_lookahead=40 / rc=crf / mbtree=1 / crf=19.0 / qcomp=0.60 / qpmin=0 / qpmax=69 / qpstep=4 / vbv_maxrate=1500 / vbv_bufsize=1450 / crf_max=0.0 / nal_hrd=none / ip_ratio=1.40 / aq=1:1.00
Encoded date : UTC 2011-09-08 11:43:25
Tagged date : UTC 2011-09-08 11:43:25
Audio
ID : 2
Format : AAC
Format/Info : Advanced Audio Codec
Format profile : LC
Codec ID : 40
Duration : 1h 21mn
Bit rate mode : Variable
Bit rate : 192 Kbps
Channel(s) : 2 channels
Channel positions : Front: L R
Sampling rate : 48.0 KHz
Compression mode : Lossy
Stream size : 111 MiB (11%)
Encoded date : UTC 2011-09-08 11:43:25
Tagged date : UTC 2011-09-08 11:43:25

Кард

Randy Orton vs. Mark Henry
Ryback vs. local athlete
The Usos vs. Heath Slater and Tyson Kidd
Six-Person Mixed Tag Team Match
Hunico vs. "Hacksaw” Jim Duggan,Sheamus and "Mean” Gene Okerlund vs. Daniel Bryan and Alberto Del Rio

Скриншоты



Последний раз редактировалось: Спартанец (2012-04-22 19:54), всего редактировалось 3 раз(а)

Создавать темы 17-Апр-2012 19:26

[Профиль]  [ЛС] 

aaaaa

Стаж: 5 лет 8 месяцев

Сообщений: 64

Cпасибо за релиз
Ryback vs. local athlete
кТо они такие?)

Создавать темы 17-Апр-2012 20:00

[Профиль]  [ЛС] 

rey mysterio

Стаж: 5 лет 9 месяцев

Сообщений: 164

спс

Создавать темы 17-Апр-2012 20:05

[Профиль]  [ЛС] 

rey mysterio

Стаж: 5 лет 9 месяцев

Сообщений: 164

надо сказать админам штобы отдельный форум для рестлинга сделали как рутрэкере))

Создавать темы 17-Апр-2012 20:14

[Профиль]  [ЛС] 

RokC

Стаж: 5 лет 9 месяцев

Сообщений: 56

Cпасибо за релиз
Ryback vs. local athlete
кТо они такие?)
Братан этот бой длился около 20 секунд кажется (не скажу кто победил дабы не портить интригу)

Создавать темы 17-Апр-2012 20:31

[Профиль]  [ЛС] 

Спартанец ®

Стаж: 5 лет 8 месяцев

Сообщений: 361

Cпасибо за релиз
Ryback vs. local athlete
кТо они такие?)
Братан этот бой длился около 20 секунд кажется (не скажу кто победил дабы не портить интригу)
Ну local athlete провел с Рейбеком свой первый бой в СМЕКе )) И я не скажу итогов ))

Создавать темы 17-Апр-2012 20:34

[Профиль]  [ЛС] 

Undertaker

Стаж: 5 лет 9 месяцев

Сообщений: 30

скажу одно Локал новый рестлер WWE еще вообще пацан))))

Создавать темы 17-Апр-2012 22:32

[Профиль]  [ЛС] 

Kroys

Стаж: 6 лет

Сообщений: 187

Симпатии: 1

Спартанец прив ) спс ) давай найди про АндерТейкера

Создавать темы 18-Апр-2012 00:48

[Профиль]  [ЛС] 
Показать сообщения:    
Ответить на тему

Текущее время: 24-Окт 03:47

Часовой пояс: UTC + 5



Вы не можете начинать темы
Вы не можете отвечать на сообщения
Вы не можете редактировать свои сообщения
Вы не можете удалять свои сообщения
Вы не можете голосовать в опросах
Вы не можете прикреплять файлы к сообщениям
Вы не можете скачивать файлы