WWE Monday Night Raw 2012/04/16 [2012 г., Рестлинг, HDTV]

Страницы :  1, 2  След.

Ответить на тему
 

Спартанец ®

Стаж: 5 лет 9 месяцев

Сообщений: 361

WWE Monday Night Raw 2012/04/16
Год выпуска: 2012
Вид спорта: Рестлинг
Участники: Звезды WWE
Продолжительность: 01.29.56
Комментарий: профессиональный (многоголосый, закадровый)
Язык комментариев: английский
Описание: Еженедельный выпуск RAW. Выпуск от 16-го апреля 2012 года
Качество: HDTV
Формат: Mр4
Видео кодек: MPEG4
Видео: MPEG4 Video (H264) 704x400 29.97fps
Аудио: AAC 48000Hz stereo 1536kbps

MediaInfo

General
Format : MPEG-4
Format profile : Base Media / Version 2
Codec ID : mp42
File size : 1.05 GiB
Duration : 1h 29mn
Overall bit rate mode : Variable
Overall bit rate : 1 673 Kbps
Encoded date : UTC 2011-09-08 11:43:25
Tagged date : UTC 2011-09-08 11:43:25
Video
ID : 1
Format : AVC
Format/Info : Advanced Video Codec
Format profile : [email protected]
Format settings, CABAC : Yes
Format settings, ReFrames : 4 frames
Codec ID : avc1
Codec ID/Info : Advanced Video Coding
Duration : 1h 29mn
Bit rate : 1 445 Kbps
Width : 704 pixels
Height : 400 pixels
Display aspect ratio : 16:9
Frame rate mode : Constant
Frame rate : 29.970 fps
Color space : YUV
Chroma subsampling : 4:2:0
Bit depth : 8 bits
Scan type : Progressive
Bits/(Pixel*Frame) : 0.171
Stream size : 929 MiB (86%)
Writing library : x264 core 122 r2183 c522ad1
Encoding settings : cabac=1 / ref=5 / deblock=1:0:0 / analyse=0x3:0x113 / me=umh / subme=9 / psy=1 / psy_rd=1.00:0.00 / mixed_ref=1 / me_range=16 / chroma_me=1 / trellis=1 / 8x8dct=1 / cqm=0 / deadzone=21,11 / fast_pskip=1 / chroma_qp_offset=-2 / threads=12 / sliced_threads=0 / nr=0 / decimate=1 / interlaced=0 / bluray_compat=0 / constrained_intra=0 / bframes=3 / b_pyramid=1 / b_adapt=2 / b_bias=0 / direct=3 / weightb=1 / open_gop=0 / weightp=2 / keyint=300 / keyint_min=30 / scenecut=40 / intra_refresh=0 / rc_lookahead=40 / rc=crf / mbtree=1 / crf=19.0 / qcomp=0.60 / qpmin=0 / qpmax=69 / qpstep=4 / vbv_maxrate=1500 / vbv_bufsize=1450 / crf_max=0.0 / nal_hrd=none / ip_ratio=1.40 / aq=1:1.00
Encoded date : UTC 2011-09-08 11:43:25
Tagged date : UTC 2011-09-08 11:43:25
Audio
ID : 2
Format : AAC
Format/Info : Advanced Audio Codec
Format profile : LC
Codec ID : 40
Duration : 1h 29mn
Bit rate mode : Variable
Bit rate : 192 Kbps
Channel(s) : 2 channels
Channel positions : Front: L R
Sampling rate : 48.0 KHz
Compression mode : Lossy
Stream size : 122 MiB (11%)
Encoded date : UTC 2011-09-08 11:43:25
Tagged date : UTC 2011-09-08 11:43:25

Скриншоты

Создавать темы 19-Апр-2012 19:15

[Профиль]  [ЛС] 

aaaaa

Стаж: 5 лет 9 месяцев

Сообщений: 64

Опять см панк с Марком генри дерется)
спс Спартанец)

Создавать темы 19-Апр-2012 19:48

[Профиль]  [ЛС] 

Спартанец ®

Стаж: 5 лет 9 месяцев

Сообщений: 361

Не за что )

Создавать темы 19-Апр-2012 19:56

[Профиль]  [ЛС] 

rey mysterio

Стаж: 5 лет 10 месяцев

Сообщений: 164

Спартанец забыл кард добавить))

Создавать темы 19-Апр-2012 20:33

[Профиль]  [ЛС] 

Спартанец ®

Стаж: 5 лет 9 месяцев

Сообщений: 361

Рей, сори )) Карда не было. А сам еще не смотрел что к чему )

Создавать темы 19-Апр-2012 20:46

[Профиль]  [ЛС] 

rey mysterio

Стаж: 5 лет 10 месяцев

Сообщений: 164

с такими успехами как ты закидываешь скоро мне предётся новый хард покупать))

Создавать темы 19-Апр-2012 21:08

[Профиль]  [ЛС] 

Kroys

Стаж: 6 лет 1 месяц

Сообщений: 187

Симпатии: 1

с такими успехами как ты закидываешь скоро мне предётся новый хард покупать))
Не одному тебе ) Спартанец я хотел тот релиз скачать плин но он весит 4гб ппц ужсС)) запиши мне на диск я за ним приеду ))))

Создавать темы 19-Апр-2012 22:01

[Профиль]  [ЛС] 

rey mysterio

Стаж: 5 лет 10 месяцев

Сообщений: 164

о и мне кстати если сможешь))

Создавать темы 19-Апр-2012 22:10

[Профиль]  [ЛС] 

Спартанец ®

Стаж: 5 лет 9 месяцев

Сообщений: 361

с такими успехами как ты закидываешь скоро мне предётся новый хард покупать))
Не одному тебе ) Спартанец я хотел тот релиз скачать плин но он весит 4гб ппц ужсС)) запиши мне на диск я за ним приеду ))))
о и мне кстати если сможешь))
:tz:

Создавать темы 20-Апр-2012 06:09

[Профиль]  [ЛС] 

rey mysterio

Стаж: 5 лет 10 месяцев

Сообщений: 164

Спартанец, пожайлуста

Создавать темы 20-Апр-2012 08:30

[Профиль]  [ЛС] 

slap_nuts

Стаж: 7 лет 5 месяцев

Сообщений: 85

Спартанец, 11 апреля WWE приезжал в Москву.....есть этот выпуск? и вообще когда его покажут?

Создавать темы 20-Апр-2012 17:08

[Профиль]  [ЛС] 

Спартанец ®

Стаж: 5 лет 9 месяцев

Сообщений: 361

Рэй, ты в каком городе живешь ? ))

Создавать темы 20-Апр-2012 20:55

[Профиль]  [ЛС] 

Спартанец ®

Стаж: 5 лет 9 месяцев

Сообщений: 361

Спартанец, 11 апреля WWE приезжал в Москву.....есть этот выпуск? и вообще когда его покажут?
Даж не знаю...пока не выкладывали. В понедельник они в Лондоне были. А про Москву - тишина :)

Создавать темы 20-Апр-2012 20:56

[Профиль]  [ЛС] 

rey mysterio

Стаж: 5 лет 10 месяцев

Сообщений: 164

Рэй, ты в каком городе живешь ? ))
в Таше а ты ?

Создавать темы 20-Апр-2012 20:56

[Профиль]  [ЛС] 

Kroys

Стаж: 6 лет 1 месяц

Сообщений: 187

Симпатии: 1

Рэй, ты в каком городе живешь ? ))
да мы с таша а ты ?)) мы приедем )))

Создавать темы 20-Апр-2012 22:13

[Профиль]  [ЛС] 
Показать сообщения:    
Ответить на тему

Текущее время: 21-Ноя 07:36

Часовой пояс: UTC + 5



Вы не можете начинать темы
Вы не можете отвечать на сообщения
Вы не можете редактировать свои сообщения
Вы не можете удалять свои сообщения
Вы не можете голосовать в опросах
Вы не можете прикреплять файлы к сообщениям
Вы не можете скачивать файлы