Титаны Рестлинга [Рестлинг, DVD5 (сжатый)]

Страницы :  1, 2  След.

Ответить на тему
 

Спартанец ®

Стаж: 5 лет 7 месяцев

Сообщений: 361

Титаны Рестлинга
Год выпуска: 1998-2008
Вид спорта: Рестлинг
Участники: Звезды WWE
Продолжительность: 03.15.21
Комментарий: профессиональный (многоголосый, закадровый)
Язык комментариев: английский
Описание: Сборник лучших боев рестлеров прошлого и настоящего.
Качество: DVD5 (сжатый)
Формат: MPEG-PS
Видео кодек: MPEG2
Аудио кодек: MPEG Audio
Видео: MPEG2 Video 720x480 (4:3) 29.97fps 9000kbps
Аудио: MPEG Audio 32000Hz mono 224kbps

Кард

Rey Misterio vs R.V.D
R.V.D vs Sabu
Shawn Michaaels vs Kurt Angel
Steve Austin & Undertaker vs Kane & Mankind
Steve Austin vs Kane
Steve Austin vs Kurt Angel
Taz vs Sabu
The Rock vs Undertaker
Undertaker vs Mankind

Скриншоты

MediaInfo

VIDEO_TS.VOB

General
Format : MPEG-PS
File size : 14.0 MiB
Duration : 40s 32ms
Overall bit rate mode : Variable
Overall bit rate : 2 927 Kbps
Video
ID : 224 (0xE0)
Format : MPEG Video
Format version : Version 2
Format profile : [email protected]
Format settings, BVOP : Yes
Format settings, Matrix : Default
Format settings, GOP : M=3, N=15
Duration : 32s 65ms
Bit rate mode : Variable
Bit rate : 2 644 Kbps
Maximum bit rate : 8 500 Kbps
Width : 720 pixels
Height : 480 pixels
Display aspect ratio : 4:3
Frame rate : 29.970 fps
Standard : NTSC
Color space : YUV
Chroma subsampling : 4:2:0
Bit depth : 8 bits
Scan type : Progressive
Compression mode : Lossy
Bits/(Pixel*Frame) : 0.255
Stream size : 10.1 MiB (72%)
Color primaries : BT.470-2 system M
Transfer characteristics : BT.470-2 System M
Matrix coefficients : BT.470-2 System B, BT.470-2 System G
Audio
ID : 192 (0xC0)
Format : MPEG Audio
Format version : Version 1
Format profile : Layer 2
Duration : 40s 32ms
Bit rate mode : Constant
Bit rate : 224 Kbps
Channel(s) : 2 channels
Sampling rate : 48.0 KHz
Compression mode : Lossy
Stream size : 1.07 MiB (8%)
Text
ID : 189 (0xBD)-32 (0x20)
Format : RLE
Format/Info : Run-length encoding
Muxing mode : DVD-Video
Menu

VTS_01_0.IFO

General
Format : DVD Video
Format profile : Program
File size : 152 KiB
Duration : 17mn 31s
Overall bit rate mode : Variable
Overall bit rate : 1 184 bps
Video
ID : 224 (0xE0)
Format : MPEG Video
Format version : Version 2
Duration : 17mn 31s
Bit rate mode : Variable
Width : 720 pixels
Height : 480 pixels
Display aspect ratio : 4:3
Frame rate : 29.970 fps
Standard : NTSC
Compression mode : Lossy
Audio
ID : 0 (0x0)
Format : MPEG Audio
Format profile : Version 1
Duration : 17mn 31s
Channel(s) : 2 channels
Sampling rate : 48.0 KHz
Compression mode : Lossy
Language : Russian
Menu #1
Duration : 12mn 18s
00:00:00.000 : Chapter 1
00:02:27.000 : Chapter 2
00:05:57.133 : Chapter 3
00:09:14.166 : Chapter 4
00:12:16.499 : Chapter 5
List (Audio) : 0
Menu #2
Duration : 17mn 31s
00:00:00.000 : Chapter 1
00:00:08.000 : Chapter 2
00:00:12.520 : Chapter 3
00:00:25.520 : Chapter 4
00:00:34.520 : Chapter 5
List (Audio) : 0

VTS_01_1.VOB

General
Format : MPEG-PS
File size : 1 000 MiB
Duration : 14mn 54s
Overall bit rate mode : Variable
Overall bit rate : 9 375 Kbps
Writing library : (c) 1998-2008 Womble Multimedia, Inc. / MPEG Video Wizard (12/2008) / Mar 31 2009
Video
ID : 224 (0xE0)
Format : MPEG Video
Format version : Version 2
Format profile : [email protected]
Format settings, BVOP : Yes
Format settings, Matrix : Custom
Duration : 14mn 54s
Bit rate mode : Variable
Bit rate : 9 000 Kbps
Width : 720 pixels
Height : 480 pixels
Display aspect ratio : 4:3
Frame rate : 29.970 fps
Standard : NTSC
Color space : YUV
Chroma subsampling : 4:2:0
Bit depth : 8 bits
Scan type : Progressive
Compression mode : Lossy
Bits/(Pixel*Frame) : 0.869
Stream size : 960 MiB (96%)
Writing library : (c) 1998-2008 Womble Multimedia, Inc. / MPEG Video Wizard (12/2008) / Mar 31 2009
Audio
ID : 192 (0xC0)
Format : MPEG Audio
Format version : Version 1
Format profile : Layer 2
Duration : 14mn 54s
Bit rate mode : Constant
Bit rate : 192 Kbps
Channel(s) : 2 channels
Sampling rate : 48.0 KHz
Compression mode : Lossy
Delay relative to video : -66ms
Stream size : 20.5 MiB (2%)
Menu

VTS_01_2.VOB

General
Format : MPEG-PS
File size : 1 000 MiB
Duration : 22s 689ms
Overall bit rate mode : Variable
Overall bit rate : 370 Mbps
Video
ID : 224 (0xE0)
Format : MPEG Video
Format version : Version 2
Format profile : [email protected]
Format settings, BVOP : Yes
Format settings, Matrix : Custom
Duration : 22s 689ms
Bit rate mode : Variable
Bit rate : 362 Mbps
Maximum bit rate : 9 000 Kbps
Width : 720 pixels
Height : 480 pixels
Display aspect ratio : 4:3
Frame rate : 29.970 fps
Standard : NTSC
Color space : YUV
Chroma subsampling : 4:2:0
Bit depth : 8 bits
Scan type : Interlaced
Scan order : Bottom Field First
Compression mode : Lossy
Bits/(Pixel*Frame) : 34.970
Stream size : 980 MiB (98%)
Audio
ID : 192 (0xC0)
Format : MPEG Audio
Format version : Version 1
Format profile : Layer 2
Duration : 22s 608ms
Bit rate mode : Constant
Bit rate : 192 Kbps
Channel(s) : 2 channels
Sampling rate : 48.0 KHz
Compression mode : Lossy
Delay relative to video : -102ms
Stream size : 530 KiB (0%)
Menu

VTS_01_2.VOB

General
Format : MPEG-PS
File size : 1 000 MiB
Duration : 22s 689ms
Overall bit rate mode : Variable
Overall bit rate : 370 Mbps
Video
ID : 224 (0xE0)
Format : MPEG Video
Format version : Version 2
Format profile : [email protected]
Format settings, BVOP : Yes
Format settings, Matrix : Custom
Duration : 22s 689ms
Bit rate mode : Variable
Bit rate : 362 Mbps
Maximum bit rate : 9 000 Kbps
Width : 720 pixels
Height : 480 pixels
Display aspect ratio : 4:3
Frame rate : 29.970 fps
Standard : NTSC
Color space : YUV
Chroma subsampling : 4:2:0
Bit depth : 8 bits
Scan type : Interlaced
Scan order : Bottom Field First
Compression mode : Lossy
Bits/(Pixel*Frame) : 34.970
Stream size : 980 MiB (98%)
Audio
ID : 192 (0xC0)
Format : MPEG Audio
Format version : Version 1
Format profile : Layer 2
Duration : 22s 608ms
Bit rate mode : Constant
Bit rate : 192 Kbps
Channel(s) : 2 channels
Sampling rate : 48.0 KHz
Compression mode : Lossy
Delay relative to video : -102ms
Stream size : 530 KiB (0%)
Menu

VTS_01_3.VOB

General
Format : MPEG-PS
File size : 1 000 MiB
Duration : 58s 258ms
Overall bit rate mode : Variable
Overall bit rate : 144 Mbps
Video
ID : 224 (0xE0)
Format : MPEG Video
Format version : Version 2
Format profile : [email protected]
Format settings, BVOP : Yes
Format settings, Matrix : Custom
Duration : 58s 258ms
Bit rate mode : Variable
Bit rate : 141 Mbps
Maximum bit rate : 9 000 Kbps
Width : 720 pixels
Height : 480 pixels
Display aspect ratio : 4:3
Frame rate : 29.970 fps
Standard : NTSC
Color space : YUV
Chroma subsampling : 4:2:0
Bit depth : 8 bits
Scan type : Progressive
Compression mode : Lossy
Bits/(Pixel*Frame) : 13.606
Stream size : 979 MiB (98%)
Audio
ID : 192 (0xC0)
Format : MPEG Audio
Format version : Version 1
Format profile : Layer 2
Duration : 58s 258ms
Bit rate mode : Constant
Bit rate : 192 Kbps
Channel(s) : 2 channels
Sampling rate : 48.0 KHz
Compression mode : Lossy
Delay relative to video : -159ms
Stream size : 1.33 MiB (0%)
Menu

VTS_01_4.VOB

General
Format : MPEG-PS
File size : 1 000 MiB
Duration : 48s 482ms
Overall bit rate mode : Variable
Overall bit rate : 173 Mbps
Video
ID : 224 (0xE0)
Format : MPEG Video
Format version : Version 2
Format profile : [email protected]
Format settings, BVOP : Yes
Format settings, Matrix : Custom
Format settings, GOP : M=3, N=15
Duration : 48s 482ms
Bit rate mode : Variable
Bit rate : 169 Mbps
Maximum bit rate : 9 000 Kbps
Width : 720 pixels
Height : 480 pixels
Display aspect ratio : 4:3
Frame rate : 29.970 fps
Standard : NTSC
Color space : YUV
Chroma subsampling : 4:2:0
Bit depth : 8 bits
Scan type : Progressive
Compression mode : Lossy
Bits/(Pixel*Frame) : 16.352
Stream size : 979 MiB (98%)
Audio
ID : 192 (0xC0)
Format : MPEG Audio
Format version : Version 1
Format profile : Layer 2
Duration : 48s 482ms
Bit rate mode : Constant
Bit rate : 192 Kbps
Channel(s) : 2 channels
Sampling rate : 48.0 KHz
Compression mode : Lossy
Delay relative to video : -80ms
Stream size : 1.11 MiB (0%)
Menu

VTS_01_5.VOB

General
Format : MPEG-PS
File size : 335 MiB
Duration : 14mn 20s
Overall bit rate mode : Variable
Overall bit rate : 3 266 Kbps
Video
ID : 224 (0xE0)
Format : MPEG Video
Format version : Version 2
Format profile : [email protected]
Format settings, BVOP : Yes
Format settings, Matrix : Custom
Format settings, GOP : M=3, N=15
Duration : 14mn 20s
Bit rate mode : Variable
Bit rate : 3 009 Kbps
Maximum bit rate : 9 000 Kbps
Width : 720 pixels
Height : 480 pixels
Display aspect ratio : 4:3
Frame rate : 29.970 fps
Standard : NTSC
Color space : YUV
Chroma subsampling : 4:2:0
Bit depth : 8 bits
Scan type : Progressive
Compression mode : Lossy
Bits/(Pixel*Frame) : 0.290
Stream size : 308 MiB (92%)
Audio
ID : 192 (0xC0)
Format : MPEG Audio
Format version : Version 1
Format profile : Layer 2
Duration : 14mn 20s
Bit rate mode : Constant
Bit rate : 192 Kbps
Channel(s) : 2 channels
Sampling rate : 48.0 KHz
Compression mode : Lossy
Delay relative to video : -79ms
Stream size : 19.7 MiB (6%)
Menu

Создавать темы 19-Апр-2012 20:42

[Профиль]  [ЛС] 

Спартанец ®

Стаж: 5 лет 7 месяцев

Сообщений: 361

Фух, замучился с этим )) Проверьте пожалуйста, господа модераторы.

Создавать темы 19-Апр-2012 20:45

[Профиль]  [ЛС] 

rey mysterio

Стаж: 5 лет 8 месяцев

Сообщений: 164

Спасибо большое Спартанец,

Создавать темы 19-Апр-2012 21:04

[Профиль]  [ЛС] 

Kroys

Стаж: 5 лет 11 месяцев

Сообщений: 187

Симпатии: 1

Вот Вот этот релиз давай на диск мне )))) хаха ппц качать долго ужс.

Создавать темы 19-Апр-2012 22:02

[Профиль]  [ЛС] 

Vovo4ka

Стаж: 6 лет 2 месяца

Сообщений: 160

Симпатии: 11

Ух ты! Спасибо Спартанец. Это то что мне надо!

Создавать темы 19-Апр-2012 22:07

[Профиль]  [ЛС] 

rey mysterio

Стаж: 5 лет 8 месяцев

Сообщений: 164

на 2 скрине кажись Мик Фоли

Создавать темы 19-Апр-2012 22:13

[Профиль]  [ЛС] 

Undertaker

Стаж: 5 лет 8 месяцев

Сообщений: 30

ооо у меня этот выпуск на диске есть только там 2 стороны!))))

Создавать темы 19-Апр-2012 22:30

[Профиль]  [ЛС] 

Спартанец ®

Стаж: 5 лет 7 месяцев

Сообщений: 361

на 2 скрине кажись Мик Фоли
Да, Там Мик )/

Создавать темы 19-Апр-2012 22:36

[Профиль]  [ЛС] 

Спартанец ®

Стаж: 5 лет 7 месяцев

Сообщений: 361

ооо у меня этот выпуск на диске есть только там 2 стороны!))))
У меня тож двухсторонний )) Но пока одну сторону выложил ))

Создавать темы 19-Апр-2012 22:37

[Профиль]  [ЛС] 

Kroys

Стаж: 5 лет 11 месяцев

Сообщений: 187

Симпатии: 1

ооо у меня этот выпуск на диске есть только там 2 стороны!))))
У меня тож двухсторонний )) Но пока одну сторону выложил ))
дай мне этот диск)

Создавать темы 20-Апр-2012 22:11

[Профиль]  [ЛС] 

Vovo4ka

Стаж: 6 лет 2 месяца

Сообщений: 160

Симпатии: 11

А вторую сторону будешь выкладывать?

Создавать темы 20-Апр-2012 22:25

[Профиль]  [ЛС] 

Спартанец ®

Стаж: 5 лет 7 месяцев

Сообщений: 361

Кто в Навои живет, пожалуйста )) А иногородним, думаю будет накладно за диском ехать ))

Создавать темы 20-Апр-2012 22:30

[Профиль]  [ЛС] 

Спартанец ®

Стаж: 5 лет 7 месяцев

Сообщений: 361

А вторую сторону будешь выкладывать?
Выложу, после первой пары - тройки скачавших )

Создавать темы 20-Апр-2012 22:31

[Профиль]  [ЛС] 

Kroys

Стаж: 5 лет 11 месяцев

Сообщений: 187

Симпатии: 1

Кто в Навои живет, пожалуйста )) А иногородним, думаю будет накладно за диском ехать ))
вай ну ты и забрался))) по почте мне скинь тогда))))

Создавать темы 20-Апр-2012 23:00

[Профиль]  [ЛС] 

rey mysterio

Стаж: 5 лет 8 месяцев

Сообщений: 164

ага ещё те почему скинуть,а ?

Создавать темы 20-Апр-2012 23:07

[Профиль]  [ЛС] 
Показать сообщения:    
Ответить на тему

Текущее время: 20-Сен 01:41

Часовой пояс: UTC + 5



Вы не можете начинать темы
Вы не можете отвечать на сообщения
Вы не можете редактировать свои сообщения
Вы не можете удалять свои сообщения
Вы не можете голосовать в опросах
Вы не можете прикреплять файлы к сообщениям
Вы не можете скачивать файлы