Бедуин (Игорь Волошин) [2011 г., драма, DVDRip]

Ответить на тему
 

alx777 ®

Стаж: 5 лет 7 месяцев

Сообщений: 87

Симпатии: 8

Бедуин
Страна: Россия
Год выпуска: 2011
Жанр: драма
Продолжительность: 01.35.25
Режиссер: Игорь Волошин
В ролях: Ольга Симонова, Серафима Мигай, Михаил Евланов, Ремигиус Сабулис, Доржи Галсанов, Анна Михалкова, Динара Друкарова, Сергей Светлаков, Георгий Гургулия, Алиса Хазанова
Описание: Ради спасения больной лейкозом дочки, Рита решается стать суррогатной матерью для странной гей-пары. Однако получить деньги Рита не успевает. Лечение нельзя прерывать, поиски донора и запланированная операция по трансплантации костного мозга требуют принятия быстрых решений. Столкнувшись с бессилием врачей, Рита решается уехать в Иорданию, к бедуинам, которые лечат рак верблюжьим молоком. Она забирает дочь из больницы и они летят в страну, которая, в итоге, меняет в их жизни все…
Качество: DVDRip
Формат: AVI
Видео кодек: XviD
Аудио кодек: AC3
Видео: XVID,25.000 fps ,720x384,1 729 Kbps
Аудио: AC-3,48000 Hz,448 Kbps

MediaInfo

G:\1\фильмы\Beduin.2011.O.DVDRip.avi
Format : AVI
Format/Info : Audio Video Interleave
File size : 1.46 GiB
Duration : 1h 35mn
Overall bit rate : 2 186 Kbps
Writing application : VirtualDubMod 1.5.10.2 (build 2540/release)
Writing library : VirtualDubMod build 2540/release
Video
ID : 0
Format : MPEG-4 Visual
Format profile : Advanced [email protected]
Format settings, BVOP : 2
Format settings, QPel : No
Format settings, GMC : No warppoints
Format settings, Matrix : Custom
Codec ID : XVID
Codec ID/Hint : XviD
Duration : 1h 35mn
Bit rate : 1 729 Kbps
Width : 720 pixels
Height : 384 pixels
Display aspect ratio : 1.875
Frame rate : 25.000 fps
Color space : YUV
Chroma subsampling : 4:2:0
Bit depth : 8 bits
Scan type : Progressive
Compression mode : Lossy
Bits/(Pixel*Frame) : 0.250
Stream size : 1.15 GiB (79%)
Writing library : XviD 1.2.1 (UTC 2008-12-04)
Audio
ID : 1
Format : AC-3
Format/Info : Audio Coding 3
Mode extension : CM (complete main)
Codec ID : 2000
Duration : 1h 35mn
Bit rate mode : Constant
Bit rate : 448 Kbps
Channel(s) : 6 channels
Channel positions : Front: L C R, Side: L R, LFE
Sampling rate : 48.0 KHz
Bit depth : 16 bits
Compression mode : Lossy
Stream size : 306 MiB (20%)
Alignment : Split accross interleaves
Interleave, duration : 40 ms (1.00 video frame)
Interleave, preload duration : 500 ms

Скриншоты



Создавать темы 19-Апр-2012 21:17

[Профиль]  [ЛС] 

Сулейман

Стаж: 7 лет 1 месяц

Сообщений: 122

как фильм мужики?

Создавать темы 24-Апр-2012 14:28

[Профиль]  [ЛС] 

Olga1368

Стаж: 5 лет 7 месяцев

Сообщений: 72

Симпатии: 12

Ребята добавьте скорость

Создавать темы 26-Апр-2012 16:34

[Профиль]  [ЛС] 

239tuit

Стаж: 5 лет

Сообщений: 75

когда и где

Создавать темы 25-Авг-2012 22:15

[Профиль]  [ЛС] 
Показать сообщения:    
Ответить на тему

Текущее время: 23-Сен 00:01

Часовой пояс: UTC + 5



Вы не можете начинать темы
Вы не можете отвечать на сообщения
Вы не можете редактировать свои сообщения
Вы не можете удалять свои сообщения
Вы не можете голосовать в опросах
Вы не можете прикреплять файлы к сообщениям
Вы не можете скачивать файлы