Самаритянин / The Samaritan (Дэвид Уивер) [2012 г., Триллер, DVDRip]

Ответить на тему
 

jaska-3d ®

Стаж: 5 лет 10 месяцев

Сообщений: 250

Симпатии: 25

Самаритянин / The Samaritan
Год выпуска: 2012
Страна: Канада
Жанр: Триллер
Продолжительность: 01:29:22
Перевод: Любительский (двухголосый, закадровый)[Перевод - Чужая, Озвучка: Команда Чип и Дейл]
Режиссер: Дэвид Уивер
Продюссер: Tony Wosk, Suzanne Cheriton, Андрас Хамори
Сценарий: Элан Мэстай, Дэвид Уивер
Бюджет: 3 марта 2012
В ролях: Сэмюэл Л. Джексон, Люк Кирби, Рут Негга, Том Уилкинсон, Джил Беллоуз, Аарон Пул, Том МакКэмус, Марта Барнс, Стефен Макинтайр, Алан С. Петерсон
Описание: В центре повествования — мошенник, который отсидел за свои преступления 20 лет и решил завязать. Он встречает молодую женщину, с которой хотел бы иметь совместное будущее, а тут к нему подкатывает сын бывшего подельника, который уговаривает его на последнее дело.
Качество: DVDRip
Формат: AVI
Видео кодек: XviD
Аудио кодек: MP3
Видео: xvid, 688x288 (2.35), 23.976 fps, 937 Kbps (0.197 bit/pixel)
Аудио: MPEG Audio, 48.0 KHz, 2 ch, 128 Kbps
 

Скриншоты


MediaInfo
General
Complete name : E:\Downloads\Видео\samarityanin.2012.DVDRip.700MB.avi
Format : AVI
Format/Info : Audio Video Interleave
File size : 686 MiB
Duration : 1h 29mn
Overall bit rate : 1 074 Kbps
Writing application : Lavf52.94.0
Video
ID : 0
Format : xvid
Codec ID : xvid
Duration : 1h 29mn
Bit rate : 933 Kbps
Width : 688 pixels
Height : 288 pixels
Display aspect ratio : 2.40:1
Frame rate : 23.976 fps
Bits/(Pixel*Frame) : 0.196
Stream size : 597 MiB (87%)
Audio
ID : 1
Format : MPEG Audio
Format version : Version 1
Format profile : Layer 3
Mode : Joint stereo
Mode extension : MS Stereo
Codec ID : 55
Codec ID/Hint : MP3
Duration : 1h 29mn
Bit rate mode : Constant
Bit rate : 128 Kbps
Channel(s) : 2 channels
Sampling rate : 48.0 KHz
Compression mode : Lossy
Stream size : 81.8 MiB (12%)
Alignment : Aligned on interleaves
Interleave, duration : 24 ms (0.58 video frame)



Последний раз редактировалось: jaska-3d (2012-04-22 09:31), всего редактировалось 5 раз(а)

Создавать темы 22-Апр-2012 09:01

[Профиль]  [ЛС] 

victor0778

Стаж: 6 лет 8 месяцев

Сообщений: 1670

Симпатии: 142

Перевод: Любительский (двухголосый, закадровый), и 3 первых скриншота достаточно.-

Создавать темы 22-Апр-2012 09:10

[Профиль]  [ЛС] 

jaska-3d ®

Стаж: 5 лет 10 месяцев

Сообщений: 250

Симпатии: 25

Всё исправлю до конца !!!

Создавать темы 22-Апр-2012 09:22

[Профиль]  [ЛС] 

victor0778

Стаж: 6 лет 8 месяцев

Сообщений: 1670

Симпатии: 142

чет DVDRip-пом не пахнет
а других Rip-ов этого фильма и нету.

Создавать темы 22-Апр-2012 13:34

[Профиль]  [ЛС] 

marik_n

Стаж: 7 лет 1 месяц

Сообщений: 9

дайте скорость

Создавать темы 22-Апр-2012 15:44

[Профиль]  [ЛС] 

jaska-3d ®

Стаж: 5 лет 10 месяцев

Сообщений: 250

Симпатии: 25

дайте скорость
Раздача после 23 :00 !!!

Создавать темы 22-Апр-2012 17:31

[Профиль]  [ЛС] 

SpAcE

Стаж: 7 лет 2 месяца

Сообщений: 60

Дайте скорость

Создавать темы 22-Апр-2012 23:04

[Профиль]  [ЛС] 

SpAcE

Стаж: 7 лет 2 месяца

Сообщений: 60

Что за фигня третий час загружаю, все никакого сдвига

Создавать темы 22-Апр-2012 23:17

[Профиль]  [ЛС] 

kozimbek.0k

Стаж: 6 лет 5 месяцев

Сообщений: 109

Симпатии: 7

поможем с раздачей спасибо за релиз

Создавать темы 23-Апр-2012 19:23

[Профиль]  [ЛС] 

polat

Стаж: 7 лет 1 месяц

Сообщений: 9

Раздачу товариш

Создавать темы 15-Май-2012 10:17

[Профиль]  [ЛС] 

Lucky5225

Стаж: 6 лет 6 месяцев

Сообщений: 9

Бюджет: 3 марта 2012
))))
Расходы на снятия фильма закончились только 3 марта )))

Создавать темы 14-Авг-2012 17:46

[Профиль]  [ЛС] 

30122009

Стаж: 5 лет 8 месяцев

Сообщений: 44

Симпатии: 1

забираю

Создавать темы 14-Авг-2012 17:56

[Профиль]  [ЛС] 

avazzz

Стаж: 5 лет 9 месяцев

Сообщений: 34

всем привет пожалуйста кто скачал данный релиз вернитесь на раздачу

Создавать темы 27-Янв-2014 21:36

[Профиль]  [ЛС] 

avazzz

Стаж: 5 лет 9 месяцев

Сообщений: 34

просьба вернитесь на раздачу я не могу докачать данный релиз

Создавать темы 26-Мар-2014 22:41

[Профиль]  [ЛС] 
Показать сообщения:    
Ответить на тему

Текущее время: 18-Окт 12:10

Часовой пояс: UTC + 5



Вы не можете начинать темы
Вы не можете отвечать на сообщения
Вы не можете редактировать свои сообщения
Вы не можете удалять свои сообщения
Вы не можете голосовать в опросах
Вы не можете прикреплять файлы к сообщениям
Вы не можете скачивать файлы