WWE Friday Night Smackdown 2012/04/20 [2012 г., Рестлинг, HDTV]

Страницы :  1, 2  След.

Ответить на тему
 

Спартанец ®

Стаж: 5 лет 7 месяцев

Сообщений: 361

WWE Friday Night Smackdown 2012/04/20
Год выпуска: 2012
Вид спорта: Рестлинг
Участники: Звезды WWE
Продолжительность: 01.19.13
Комментарий: профессиональный (многоголосый, закадровый)
Язык комментариев: английский
Описание: Один из пятничных вечеров в Smackdown. Выпуск от 20-го апреля 2012 года
Качество: HDTV
Формат: AVI
Видео кодек: XviD
Видео: Xvid, 624x352, 25fps, 1 196 Kbps
Аудио: Dolby AC3, 48000Hz, stereo, 128kbps

MediaInfo

General
Format : AVI
Format/Info : Audio Video Interleave
File size : 756 MiB
Duration : 1h 19mn
Overall bit rate : 1 334 Kbps
Writing library : VirtualDub build 32842/release
Video
ID : 0
Format : MPEG-4 Visual
Format profile : Advanced [email protected]
Format settings, BVOP : 2
Format settings, QPel : No
Format settings, GMC : No warppoints
Format settings, Matrix : Default (H.263)
Muxing mode : Packed bitstream
Codec ID : XVID
Codec ID/Hint : XviD
Duration : 1h 19mn
Bit rate : 1 196 Kbps
Width : 624 pixels
Height : 352 pixels
Display aspect ratio : 16:9
Frame rate : 25.000 fps
Color space : YUV
Chroma subsampling : 4:2:0
Bit depth : 8 bits
Scan type : Progressive
Compression mode : Lossy
Bits/(Pixel*Frame) : 0.218
Stream size : 678 MiB (90%)
Writing library : XviD 1.2.1 (UTC 2008-12-04)
Audio
ID : 1
Format : AC-3
Format/Info : Audio Coding 3
Mode extension : CM (complete main)
Codec ID : 2000
Duration : 1h 19mn
Bit rate mode : Constant
Bit rate : 128 Kbps
Channel(s) : 2 channels
Channel positions : Front: L R
Sampling rate : 48.0 KHz
Bit depth : 16 bits
Compression mode : Lossy
Stream size : 72.5 MiB (10%)
Alignment : Aligned on interleaves
Interleave, duration : 40 ms (1.00 video frame)
Interleave, preload duration : 512 ms

Кард

* AJ vs. Natalya
* Brodus Clay vs. Hunico
* The Uso Brothers vs. Titus O'Neil and Darren Young
* Big Show vs. Alberto Del Rio
* Ryback vs. Danny Merman
* Sheamus, Randy Orton, and The Great Khali vs. Daniel Bryan, Mark Henry, and Cody Rhodes

Скриншоты

Создавать темы 22-Апр-2012 19:55

[Профиль]  [ЛС] 

rey mysterio

Стаж: 5 лет 8 месяцев

Сообщений: 164

во спасибо сёня качать буду

Создавать темы 22-Апр-2012 20:10

[Профиль]  [ЛС] 

rey mysterio

Стаж: 5 лет 8 месяцев

Сообщений: 164

жду от тебя Extreme Rules

Создавать темы 22-Апр-2012 20:11

[Профиль]  [ЛС] 

Спартанец ®

Стаж: 5 лет 7 месяцев

Сообщений: 361

не за что ) качайте наздоровье ) 29-го если состоится, то дня через три - четыре выложу. Постараюсь

Создавать темы 22-Апр-2012 20:41

[Профиль]  [ЛС] 

The Game

Стаж: 5 лет 6 месяцев

Сообщений: 80

Симпатии: 1

Спасибо Спартанец жду от тебя большего

Создавать темы 23-Апр-2012 15:43

[Профиль]  [ЛС] 

Kroys

Стаж: 5 лет 11 месяцев

Сообщений: 187

Симпатии: 1

не за что ) качайте наздоровье ) 29-го если состоится, то дня через три - четыре выложу. Постараюсь
Ништяк )ждём))

Создавать темы 23-Апр-2012 22:48

[Профиль]  [ЛС] 

Kroys

Стаж: 5 лет 11 месяцев

Сообщений: 187

Симпатии: 1

ребята на раздачу плиз)

Создавать темы 24-Апр-2012 16:04

[Профиль]  [ЛС] 

rey mysterio

Стаж: 5 лет 8 месяцев

Сообщений: 164

Спартанец, када новый RAW закинишь?

Создавать темы 25-Апр-2012 20:09

[Профиль]  [ЛС] 

Спартанец ®

Стаж: 5 лет 7 месяцев

Сообщений: 361

сейчас оформлю )

Создавать темы 25-Апр-2012 21:10

[Профиль]  [ЛС] 

rey mysterio

Стаж: 5 лет 8 месяцев

Сообщений: 164

уре)) и ещё можешь побольше дать скорость на титаны рестлинга (сжатый) а то так я из-за месяц не скачаю

Создавать темы 25-Апр-2012 21:26

[Профиль]  [ЛС] 

Спартанец ®

Стаж: 5 лет 7 месяцев

Сообщений: 361

на полной стоит (

Создавать темы 25-Апр-2012 21:29

[Профиль]  [ЛС] 

rey mysterio

Стаж: 5 лет 8 месяцев

Сообщений: 164

канкретно 11 кб наполной((((((

Создавать темы 25-Апр-2012 21:37

[Профиль]  [ЛС] 

NodirAgenT

Стаж: 6 лет 5 месяцев

Сообщений: 204

залейте в майтб Видео Сины И Леснара ППЦ СИНА ****АХНУЛ ЛЕСНАРА-ППЦ ЕСИ МОНО ВСЕ БОИ В ТАСЬКУ ЗАКИНЬТЕ ИЛИ В МАЙТУБ ПРОСТО ТАСЬКА НЕ ДАЕТ СКОРОСТИ НОРМ-руни 17 еСИ НЕ ОШИБАЮСЬ ЗАЛЕЙ ПЛИССС

_________________
Подпись отключена за нарушение правил форума

Создавать темы 01-Май-2012 22:17

[Профиль]  [ЛС] 

Pendalf

Стаж: 6 лет 3 месяца

Сообщений: 416

Симпатии: 34

NodirAgenT,
Во первых, мат, пусть и завуалированный, запрещен!
Во вторых, оверпостинг тоже запрещен - пишите все одним сообщением
Еще раз увижу будет карточка выдана

Создавать темы 02-Май-2012 00:51

[Профиль]  [ЛС] 

Kroys

Стаж: 5 лет 11 месяцев

Сообщений: 187

Симпатии: 1

Спратанец Привет!) что там с Extreme Rules скоро будет?)

Создавать темы 02-Май-2012 16:50

[Профиль]  [ЛС] 
Показать сообщения:    
Ответить на тему

Текущее время: 24-Сен 00:49

Часовой пояс: UTC + 5



Вы не можете начинать темы
Вы не можете отвечать на сообщения
Вы не можете редактировать свои сообщения
Вы не можете удалять свои сообщения
Вы не можете голосовать в опросах
Вы не можете прикреплять файлы к сообщениям
Вы не можете скачивать файлы