WWE Monday Night Raw 2012/04/23 [2012 г., Рестлинг, HDTV]

Ответить на тему
 

Спартанец ®

Стаж: 5 лет 6 месяцев

Сообщений: 361

WWE Monday Night Raw 2012/04/23
Год выпуска: 2012
Вид спорта: Рестлинг
Участники: Звезды WWE
Продолжительность: 02.21.04
Комментарий: профессиональный (многоголосый, закадровый)
Язык комментариев: английский
Качество: HDTV
Формат: Mр4
Видео кодек: AVC
Аудио кодек: AAC - Advanced Audio Codec
Видео: MPEG4 Video (H264) 704x400 29.97fps 1424 Kbps
Аудио: AAC 48000Hz stereo 1536kbps

Кард

Singles Match:
Chris Jericho vs Kofi KingstonSingles Match:
R-Truth vs Lord TensaiTag Team Match:
Alberto Del Rio and Cody Rhodes vs Big Show and The Great KhaliLumberjill Divas Championship Match:
Beth Phoenix vs Nikki BellaNon-Title Match:
Shaemus vs Mark Henry
Special guest referee: Daniel BryanNon-Title Tag Team Match:
Primo and Epico vs Zack Ryder and Santino MarrelaTag Team Match:
Brodus Clay and Hornswoggle vs Dolph Ziggler and Jack Swagger

MediaInfo

General
Format : MPEG-4
Format profile : Base Media / Version 2
Codec ID : mp42
File size : 1.61 GiB
Duration : 2h 21mn
Overall bit rate mode : Variable
Overall bit rate : 1 638 Kbps
Encoded date : UTC 2011-09-08 11:43:25
Tagged date : UTC 2011-09-08 11:43:25
Video
ID : 1
Format : AVC
Format/Info : Advanced Video Codec
Format profile : [email protected]
Format settings, CABAC : Yes
Format settings, ReFrames : 4 frames
Codec ID : avc1
Codec ID/Info : Advanced Video Coding
Duration : 2h 21mn
Bit rate : 1 424 Kbps
Width : 704 pixels
Height : 400 pixels
Display aspect ratio : 16:9
Frame rate mode : Constant
Frame rate : 29.970 fps
Color space : YUV
Chroma subsampling : 4:2:0
Bit depth : 8 bits
Scan type : Progressive
Bits/(Pixel*Frame) : 0.169
Stream size : 1.40 GiB (87%)
Writing library : x264 core 122 r2183 c522ad1
Encoding settings : cabac=1 / ref=5 / deblock=1:0:0 / analyse=0x3:0x113 / me=umh / subme=9 / psy=1 / psy_rd=1.00:0.00 / mixed_ref=1 / me_range=16 / chroma_me=1 / trellis=1 / 8x8dct=1 / cqm=0 / deadzone=21,11 / fast_pskip=1 / chroma_qp_offset=-2 / threads=12 / sliced_threads=0 / nr=0 / decimate=1 / interlaced=0 / bluray_compat=0 / constrained_intra=0 / bframes=3 / b_pyramid=1 / b_adapt=2 / b_bias=0 / direct=3 / weightb=1 / open_gop=0 / weightp=2 / keyint=300 / keyint_min=30 / scenecut=40 / intra_refresh=0 / rc_lookahead=40 / rc=crf / mbtree=1 / crf=19.0 / qcomp=0.60 / qpmin=0 / qpmax=69 / qpstep=4 / vbv_maxrate=1500 / vbv_bufsize=1450 / crf_max=0.0 / nal_hrd=none / ip_ratio=1.40 / aq=1:1.00
Encoded date : UTC 2011-09-08 11:43:25
Tagged date : UTC 2011-09-08 11:43:25
Audio
ID : 2
Format : AAC
Format/Info : Advanced Audio Codec
Format profile : LC
Codec ID : 40
Duration : 2h 21mn
Bit rate mode : Variable
Bit rate : 192 Kbps
Channel(s) : 2 channels
Channel positions : Front: L R
Sampling rate : 48.0 KHz
Compression mode : Lossy
Stream size : 191 MiB (12%)
Encoded date : UTC 2011-09-08 11:43:25
Tagged date : UTC 2011-09-08 11:43:25

Скриншоты

Создавать темы 25-Апр-2012 21:48

[Профиль]  [ЛС] 

aaaaa

Стаж: 5 лет 6 месяцев

Сообщений: 64

сПАсибо Спартанец каждую неделю жду твои раздачи))

Создавать темы 25-Апр-2012 21:54

[Профиль]  [ЛС] 

rey mysterio

Стаж: 5 лет 7 месяцев

Сообщений: 164

спасибо огромное ,а чо так много весит?

Создавать темы 25-Апр-2012 22:20

[Профиль]  [ЛС] 

Спартанец ®

Стаж: 5 лет 6 месяцев

Сообщений: 361

Не за что парни ) Качайте на здоровье )
Много весит, он долго идет просто. 2часа и 20 минут.

Создавать темы 25-Апр-2012 22:53

[Профиль]  [ЛС] 

rey mysterio

Стаж: 5 лет 7 месяцев

Сообщений: 164

спец выпуск)

Создавать темы 25-Апр-2012 23:08

[Профиль]  [ЛС] 

seven

Стаж: 6 лет 2 месяца

Сообщений: 33

как вы это смотрите? не понимаю. постановочные бои, не интересно же...

Создавать темы 27-Апр-2012 22:04

[Профиль]  [ЛС] 

rey mysterio

Стаж: 5 лет 7 месяцев

Сообщений: 164

каму как ?

Создавать темы 27-Апр-2012 22:25

[Профиль]  [ЛС] 

aaaaa

Стаж: 5 лет 6 месяцев

Сообщений: 64

seven,
Например пока я качаю торент мы с друзьями устраиваем тотализатор кто выйграет например в этой серии я поставил на
R-Truth vs Lord Tensai

Создавать темы 27-Апр-2012 22:37

[Профиль]  [ЛС] 

Спартанец ®

Стаж: 5 лет 6 месяцев

Сообщений: 361

как вы это смотрите? не понимаю. постановочные бои, не интересно же...
Мы же все смотрим остросюжетные фильмы. И понимаем что это кино. И все равно смотрим и переживаем вместе с главным героем. Здесь тоже самое. Понимаешь что это шоу, но все же смотришь и понимаешь, как это чертовски красиво и захватывающе.

Создавать темы 28-Апр-2012 08:47

[Профиль]  [ЛС] 

rey mysterio

Стаж: 5 лет 7 месяцев

Сообщений: 164

как вы это смотрите? не понимаю. постановочные бои, не интересно же...
Мы же все смотрим остросюжетные фильмы. И понимаем что это кино. И все равно смотрим и переживаем вместе с главным героем. Здесь тоже самое. Понимаешь что это шоу, но все же смотришь и понимаешь, как это чертовски красиво и захватывающе.
а собенно када дерутся лучадоры это ваще класс, как они исполняют ))
http://mytube.uz/ru/tracks/118097.htm короткое видео бой лучадоров(син кара против рея мистерио)
http://mytube.uz/ru/tracks/118105.htm бой брока леснара против рея мистерио

Создавать темы 28-Апр-2012 11:41

[Профиль]  [ЛС] 
Показать сообщения:    
Ответить на тему

Текущее время: 17-Авг 22:38

Часовой пояс: UTC + 5



Вы не можете начинать темы
Вы не можете отвечать на сообщения
Вы не можете редактировать свои сообщения
Вы не можете удалять свои сообщения
Вы не можете голосовать в опросах
Вы не можете прикреплять файлы к сообщениям
Вы не можете скачивать файлы