WWE Friday Night Smackdown 2012/04/27 [2012 г., Рестлинг, HDTV]

Ответить на тему
 

Спартанец ®

Стаж: 5 лет 10 месяцев

Сообщений: 361

WWE Friday Night Smackdown 2012/04/27
Год выпуска: 2012
Вид спорта: Рестлинг
Участники: Звезды WWE
Продолжительность: 01.20.48
Комментарий: профессиональный (многоголосый, закадровый)
Язык комментариев: Русский (Олег Манылов)
Описание: Один из пятничных вечеров в Smackdown. Выпуск от 27-го апреля 2012 года
Качество: HDTV
Формат: Mр4
Видео кодек: x264 / AVC
Аудио кодек: MP3
Видео: MPEG4 Video (H264) 704x400 25fps 1450 Kbps
Аудио: MPEG Audio Layer 3 44100Hz stereo 128kbps

MediaInfo

General
Format : MPEG-4
Format profile : Base Media
Codec ID : isom
File size : 919 MiB
Duration : 1h 20mn
Overall bit rate : 1 589 Kbps
Encoded date : UTC 2012-04-27 12:50:01
Tagged date : UTC 2012-04-27 12:50:01
Writing application : Yamb 2.1.0.0 [http://yamb.unite-video.com]
Video
ID : 1
Format : AVC
Format/Info : Advanced Video Codec
Format profile : [email protected]
Format settings, CABAC : Yes
Format settings, ReFrames : 3 frames
Codec ID : avc1
Codec ID/Info : Advanced Video Coding
Duration : 1h 20mn
Bit rate : 1 450 Kbps
Maximum bit rate : 8 134 Kbps
Width : 704 pixels
Height : 400 pixels
Display aspect ratio : 16:9
Frame rate mode : Constant
Frame rate : 25.000 fps
Color space : YUV
Chroma subsampling : 4:2:0
Bit depth : 8 bits
Scan type : Progressive
Bits/(Pixel*Frame) : 0.206
Stream size : 843 MiB (92%)
Writing library : x264 core 120
Encoding settings : cabac=1 / ref=3 / deblock=1:0:0 / analyse=0x3:0x113 / me=hex / subme=7 / psy=1 / psy_rd=1.00:0.00 / mixed_ref=1 / me_range=16 / chroma_me=1 / trellis=1 / 8x8dct=1 / cqm=0 / deadzone=21,11 / fast_pskip=1 / chroma_qp_offset=-2 / threads=9 / sliced_threads=0 / nr=0 / decimate=1 / interlaced=0 / bluray_compat=0 / constrained_intra=0 / bframes=3 / b_pyramid=0 / b_adapt=2 / b_bias=0 / direct=1 / weightb=1 / open_gop=0 / weightp=1 / keyint=250 / keyint_min=25 / scenecut=40 / intra_refresh=0 / rc_lookahead=40 / rc=abr / mbtree=1 / bitrate=1450 / ratetol=1.0 / qcomp=0.60 / qpmin=10 / qpmax=51 / qpstep=4 / ip_ratio=1.40 / aq=1:1.00
Encoded date : UTC 2012-04-27 06:44:47
Tagged date : UTC 2012-04-27 12:50:29
Color primaries : BT.709-5, BT.1361, IEC 61966-2-4, SMPTE RP177
Transfer characteristics : BT.709-5, BT.1361
Matrix coefficients : BT.709-5, BT.1361, IEC 61966-2-4 709, SMPTE RP177
Audio
ID : 2
Format : MPEG Audio
Format version : Version 1
Format profile : Layer 3
Mode : Joint stereo
Mode extension : MS Stereo
Codec ID : 6B
Duration : 1h 20mn
Bit rate mode : Constant
Bit rate : 128 Kbps
Maximum bit rate : 134 Kbps
Channel(s) : 2 channels
Sampling rate : 44.1 KHz
Compression mode : Lossy
Stream size : 74.0 MiB (8%)
Encoded date : UTC 2012-04-27 12:50:25
Tagged date : UTC 2012-04-27 12:50:29

Кард

World Title Match: Sheamus © vs. Mark Henry
Non-Title Match: Big Show © vs. Alberto Del Rio
Divas Title Match: Nikki Bella © vs. Alicia Fox
Titus O'Neill and Darren Young vs. Ezekiel Jackson and Yoshi Tatsu
Antonio Cesaro vs. Tyson Kidd
Great Khali vs. Cody Rhodes
Ryback in action

Скриншоты

Создавать темы 29-Апр-2012 09:07

[Профиль]  [ЛС] 

aaaaa

Стаж: 5 лет 10 месяцев

Сообщений: 64

Cпартанец спсибо помогите скачать рав скорость маленькая)

Создавать темы 29-Апр-2012 13:30

[Профиль]  [ЛС] 

Спартанец ®

Стаж: 5 лет 10 месяцев

Сообщений: 361

Опрос )) Качать ли Экстрим Рулз сейчас, или подождать пока выйдет руссифицированная версия от 545 тв ? Подождем ? Или английский язык не помеха ?

Создавать темы 30-Апр-2012 20:13

[Профиль]  [ЛС] 

NodirAgenT

Стаж: 6 лет 8 месяцев

Сообщений: 204

Коментарии Англичан прикольней нам важнее процессс а не Коменты

_________________
Подпись отключена за нарушение правил форума

Создавать темы 04-Май-2012 09:13

[Профиль]  [ЛС] 
Показать сообщения:    
Ответить на тему

Текущее время: 19-Дек 01:07

Часовой пояс: UTC + 5



Вы не можете начинать темы
Вы не можете отвечать на сообщения
Вы не можете редактировать свои сообщения
Вы не можете удалять свои сообщения
Вы не можете голосовать в опросах
Вы не можете прикреплять файлы к сообщениям
Вы не можете скачивать файлы