Человек, который изменил всё / Moneyball (Беннетт Миллер / Bennett Miller) [2011, США / драма, биография, спорт, BDRip 1080p] DUB + Original ENG + Sub (rus, eng)

Ответить на тему
 

akromdj ®

Стаж: 6 лет 6 месяцев

Сообщений: 4

Человек, который изменил всё / Moneyball (Беннетт Миллер / Bennett Miller) [2011, США]
Год выпуска: 2011
Страна: США
Жанр: драма, биография, спорт
Продолжительность: 02:13:15
Перевод: Профессиональный (дублированный) [лицензия]
Субтитры: есть (2 вида)
Режиссер: Беннетт Миллер / Bennett Miller
В ролях: Брэд Питт, Джона Хилл, Филип Сеймур Хоффман, Робин Райт, Крис Прэтт, Стефен Бишоп, Брент Дженнингс, Кен Медлок, Тэмми Бланчард, Джек МакГи
Описание: Фильм по книге Майкла M. Льюиса, изданной в 2003 году, об Оклендской бейсбольной команде и ее генеральном менеджере, Билли Бине. Его цель — создать конкурентоспособную бейсбольную команду, несмотря на финансовые трудности.
Качество: BDRip 1080p
Формат: MKV
Видео: AVC,1920x1040,14000 kbps ,23.976 fps
Аудио #1: Russian: 48 kHz, AC3, 3/2 (L,C,R,l,r) + LFE ch, ~448.00 kbps avg
Аудио #2: English: 48 kHz, DTS, 3/2 (L,C,R,l,r) + LFE ch, ~1536.00 kbps avg
Субтитры: Русские (форсированные), английские
Дополнительная информация:
 

Mediainfo

General
Unique ID : 182241404549429460896475624341982755461 (0x891A6AF5C9292F99A97F2272E8E93A85)
Complete name : D:\Movies\HD\Moneyball.2011.BluRay.1080p.DTS.x264-CHD.mkv
Format : Matroska
File size : 14.8 GiB
Duration : 2h 13mn
Overall bit rate : 16.0 Mbps
Movie name : -Talian-
Encoded date : UTC 2012-04-30 12:27:24
Writing application : mkvmerge v5.0.1 ('Es ist Sommer') built on Oct 9 2011 11:55:43
Writing library : libebml v1.2.2 + libmatroska v1.3.0
Video
ID : 1
Format : AVC
Format/Info : Advanced Video Codec
Format profile : [email protected]
Format settings, CABAC : Yes
Format settings, ReFrames : 4 frames
Codec ID : V_MPEG4/ISO/AVC
Duration : 2h 13mn
Bit rate : 14.0 Mbps
Width : 1 920 pixels
Height : 1 040 pixels
Display aspect ratio : 16:9
Frame rate : 23.976 fps
Color space : YUV
Chroma subsampling : 4:2:0
Bit depth : 8 bits
Scan type : Progressive
Bits/(Pixel*Frame) : 0.292
Stream size : 12.7 GiB (86%)
Title : Moneyball.2011.BluRay.1080p.DTS.x264-CHD
Writing library : x264 core 116 r2074 2641b9e
Encoding settings : cabac=1 / ref=4 / deblock=1:-3:-3 / analyse=0x3:0x113 / me=umh / subme=11 / psy=1 / psy_rd=1.05:0.10 / mixed_ref=1 / me_range=48 / chroma_me=1 / trellis=2 / 8x8dct=1 / cqm=2 / deadzone=21,11 / fast_pskip=0 / chroma_qp_offset=-2 / threads=8 / sliced_threads=0 / nr=0 / decimate=1 / interlaced=0 / bluray_compat=0 / constrained_intra=0 / bframes=6 / b_pyramid=2 / b_adapt=2 / b_bias=0 / direct=3 / weightb=1 / open_gop=0 / weightp=2 / keyint=250 / keyint_min=23 / scenecut=40 / intra_refresh=0 / rc_lookahead=50 / rc=2pass / mbtree=1 / bitrate=14000 / ratetol=1.0 / qcomp=0.70 / qpmin=1 / qpmax=63 / qpstep=4 / cplxblur=20.0 / qblur=0.5 / vbv_maxrate=45000 / vbv_bufsize=40000 / nal_hrd=none / ip_ratio=1.40 / aq=2:0.80
Language : English
Audio #1
ID : 2
Format : AC-3
Format/Info : Audio Coding 3
Mode extension : CM (complete main)
Codec ID : A_AC3
Duration : 2h 13mn
Bit rate mode : Constant
Bit rate : 448 Kbps
Channel(s) : 6 channels
Channel positions : Front: L C R, Side: L R, LFE
Sampling rate : 48.0 KHz
Bit depth : 16 bits
Compression mode : Lossy
Stream size : 427 MiB (3%)
Title : MVO-R5
Language : Russian
Audio #2
ID : 3
Format : DTS
Format/Info : Digital Theater Systems
Codec ID : A_DTS
Duration : 2h 13mn
Bit rate mode : Constant
Bit rate : 1 510 Kbps
Channel(s) : 6 channels
Channel positions : Front: L C R, Side: L R, LFE
Sampling rate : 48.0 KHz
Bit depth : 24 bits
Compression mode : Lossy
Stream size : 1.41 GiB (9%)
Title : Original
Language : English
Text #1
ID : 4
Format : UTF-8
Codec ID : S_TEXT/UTF8
Codec ID/Info : UTF-8 Plain Text
Title : Sub-Forced
Language : Russian
Text #2
ID : 5
Format : UTF-8
Codec ID : S_TEXT/UTF8
Codec ID/Info : UTF-8 Plain Text
Title : Sub
Language : English
Menu
00:00:00.000 : 00:00:00.000
00:03:34.131 : 00:03:34.131
00:08:15.870 : 00:08:15.870
00:13:57.545 : 00:13:57.545
00:20:45.327 : 00:20:45.327
00:28:35.714 : 00:28:35.714
00:33:15.076 : 00:33:15.076
00:41:46.963 : 00:41:46.963
00:52:59.218 : 00:52:59.218
00:57:29.363 : 00:57:29.363
01:05:47.443 : 01:05:47.443
01:09:38.341 : 01:09:38.341
01:20:42.755 : 01:20:42.755
01:24:32.109 : 01:24:32.109
01:31:55.677 : 01:31:55.677
01:37:56.662 : 01:37:56.662
01:43:19.151 : 01:43:19.151
01:48:20.953 : 01:48:20.953
01:52:50.847 : 01:52:50.847
01:59:43.760 : 01:59:43.760

Скриншоты



Последний раз редактировалось: akromdj (2012-04-30 20:31), всего редактировалось 6 раз(а)

Создавать темы 30-Апр-2012 14:57

[Профиль]  [ЛС] 

Pendalf

Стаж: 6 лет 2 месяца

Сообщений: 416

Симпатии: 34

akromdj, напишите все на русском и выложите отчет MediaInfo (у меня в подписи ссылка)

Создавать темы 30-Апр-2012 17:43

[Профиль]  [ЛС] 

akromdj ®

Стаж: 6 лет 6 месяцев

Сообщений: 4

Сделал, как добавить рейтинги IMDB и Кинопоиск?

Создавать темы 30-Апр-2012 18:03

[Профиль]  [ЛС] 

Mixer City

Стаж: 6 лет 7 месяцев

Сообщений: 754

Симпатии: 63

akromdj, ссылку фильма с кинопоиска вставь в теги сюда:
[kp]X[/kp]
, вместо X и поставь в тему.

Создавать темы 30-Апр-2012 18:47

[Профиль]  [ЛС] 

Intav

Стаж: 5 лет 5 месяцев

Сообщений: 39

Симпатии: 14

И что? тему сделали, а с раздачи слезли...

Создавать темы 18-Май-2012 22:22

[Профиль]  [ЛС] 

Hike

Стаж: 5 лет 6 месяцев

Сообщений: 2

Ребята, давайте раздавайте пожалуйста

Создавать темы 10-Авг-2012 21:18

[Профиль]  [ЛС] 

kissmefan

Стаж: 4 года 11 месяцев

Сообщений: 2

Встанте плиз на раздачу

Создавать темы 14-Окт-2012 15:30

[Профиль]  [ЛС] 

Hike

Стаж: 5 лет 6 месяцев

Сообщений: 2

мужики, вернитесь пожалуйста на раздачу! с 10 августа скачиваю))

Создавать темы 19-Ноя-2012 15:36

[Профиль]  [ЛС] 

Maxa_1

Стаж: 5 лет 4 месяца

Сообщений: 7

есть тут кто из скачавших? если да вернитесь пожалуйста к раздаче ..

Создавать темы 26-Мар-2013 10:16

[Профиль]  [ЛС] 
Показать сообщения:    
Ответить на тему

Текущее время: 17-Авг 11:11

Часовой пояс: UTC + 5



Вы не можете начинать темы
Вы не можете отвечать на сообщения
Вы не можете редактировать свои сообщения
Вы не можете удалять свои сообщения
Вы не можете голосовать в опросах
Вы не можете прикреплять файлы к сообщениям
Вы не можете скачивать файлы