Челюсти 3D / Shark Night 3D (Дэвид Р. Эллис) [2011 г., ужасы, триллер, BDRip 1080p]

Ответить на тему
 

xakerjon ®

Стаж: 5 лет 10 месяцев

Сообщений: 8

Челюсти 3D / Shark Night 3D
Год выпуска: 2011
Страна: США
Жанр: ужасы, триллер
Продолжительность: 01:35.13
Перевод: профессиональный (полное дублирование)
Режиссер: Дэвид Р. Эллис
Продюссер: Крис Бриггс, Майк Флайсс, Линетт Хауэлл
Сценарий: Уилл Хэйес, Джесси Студенберг
Бюджет: $25 000 000
Премьера в мире: 31 августа 2011
В ролях: Сара Пэкстон, Дастин Миллиган, Крис Кармак, Кэтрин МакФи, Донал Лог, Крис Зилка, Алисса Диаз, Джоэль Мур, Джошуа Леонард, Джимми Ли мл., Дэймон Липари, Кристин Куинн, Тайлер Брайан.
Описание: Сюжет фильма вращается вокруг группы подростков, учащихся колледжа, которые проводят свои выходные на воде в большом озере. Вскоре они обнаруживают, что зубастая опасность скрывается под ними, в непроглядной глубине
Доп. информация: Формат 3D: Anamorph OverUnder
Качество: BDRip 1080p
Формат: MKV
Видео кодек: H.264
Аудио кодек: AC3
Видео: 1920x1080, 23.976 fps, 15.1 Mbps
Аудио: 6ch, 48000 Hz, 448 Kbps

Media Info

Video
ID : 1
Format : AVC
Format/Info : Advanced Video Codec
Format profile : High@L4.1
Format settings, CABAC : Yes
Format settings, ReFrames : 4 frames
Codec ID : V_MPEG4/ISO/AVC
Duration : 1h 30mn
Bit rate : 15.1 Mbps
Width : 1 920 pixels
Height : 1 080 pixels
Display aspect ratio : 16:9
Frame rate : 23.976 fps
Color space : YUV
Chroma subsampling : 4:2:0
Bit depth : 8 bits
Scan type : Progressive
Bits/(Pixel*Frame) : 0.303
Stream size : 9.51 GiB (95%)
Title : BDRip by TopGun
Writing library : x264 core 116 r2074 2641b9e
Encoding settings : cabac=1 / ref=4 / deblock=1:-3:-3 / analyse=0x3:0x133 / me=umh / subme=9 / psy=1 / psy_rd=1.00:0.05 / mixed_ref=1 / me_range=16 / chroma_me=1 / trellis=2 / 8x8dct=1 / cqm=0 / deadzone=21,11 / fast_pskip=1 / chroma_qp_offset=-3 / threads=6 / sliced_threads=0 / nr=0 / decimate=1 / interlaced=0 / bluray_compat=0 / constrained_intra=0 / bframes=6 / b_pyramid=2 / b_adapt=2 / b_bias=0 / direct=3 / weightb=1 / open_gop=0 / weightp=2 / keyint=250 / keyint_min=23 / scenecut=40 / intra_refresh=0 / rc_lookahead=60 / rc=crf / mbtree=1 / crf=18.0 / qcomp=0.60 / qpmin=10 / qpmax=69 / qpstep=4 / vbv_maxrate=50000 / vbv_bufsize=50000 / crf_max=0.0 / nal_hrd=none / ip_ratio=1.40 / aq=1:0.80
Language : English
Default : Yes
Forced : No
Audio
ID : 2
Format : AC-3
Format/Info : Audio Coding 3
Mode extension : CM (complete main)
Codec ID : A_AC3
Duration : 1h 30mn
Bit rate mode : Constant
Bit rate : 448 Kbps
Channel(s) : 6 channels
Channel positions : Front: L C R, Side: L R, LFE
Sampling rate : 48.0 KHz
Bit depth : 16 bits
Compression mode : Lossy
Stream size : 289 MiB (3%)
Title : Rus AC3 DUB
Language : Russian
Default : Yes
Forced : No

Скриншоты



Последний раз редактировалось: xakerjon (2012-05-03 08:42), всего редактировалось 2 раз(а)

Создавать темы 02-Май-2012 08:43

[Профиль]  [ЛС] 

xakerjon ®

Стаж: 5 лет 10 месяцев

Сообщений: 8

а ууу где мадера тори??? когда проверить мой релиз

Создавать темы 02-Май-2012 14:48

[Профиль]  [ЛС] 

Mixer City

Стаж: 6 лет 11 месяцев

Сообщений: 754

Симпатии: 63

xakerjon, напиши H.264 всесто Другой MPEG4, допиши битрейт видео и аудио.

Создавать темы 03-Май-2012 00:15

[Профиль]  [ЛС] 

satalamer

Стаж: 6 лет 6 месяцев

Сообщений: 41

раздача где?

Создавать темы 24-Май-2012 08:31

[Профиль]  [ЛС] 

satalamer

Стаж: 6 лет 6 месяцев

Сообщений: 41

сид раздача где?

Создавать темы 27-Май-2012 14:42

[Профиль]  [ЛС] 

xakerjon ®

Стаж: 5 лет 10 месяцев

Сообщений: 8

скора будет вам раздача ждите . как у нас узбеков ест пословица ( ШОШИЛГАН КИЗ ЭРГА ЙОЛЧИМАС)

Создавать темы 30-Май-2012 10:56

[Профиль]  [ЛС] 

satalamer

Стаж: 6 лет 6 месяцев

Сообщений: 41

месяц качаю а ты пишеш жди

Создавать темы 05-Июн-2012 18:23

[Профиль]  [ЛС] 

xakerjon ®

Стаж: 5 лет 10 месяцев

Сообщений: 8

почему мне все время стоят на раздаче многие закачали это фильм пускай они тоже роз дадут... блин

Создавать темы 11-Июл-2012 14:04

[Профиль]  [ЛС] 

Sherzodik

Стаж: 6 лет

Сообщений: 13

Сиды пожалуйста встаньте на раздачу

Создавать темы 15-Авг-2012 18:38

[Профиль]  [ЛС] 

ruslanjan

Стаж: 5 лет 2 месяца

Сообщений: 4

дайте жару плиззз!

Создавать темы 30-Авг-2012 23:04

[Профиль]  [ЛС] 

cona

Стаж: 5 лет 5 месяцев

Сообщений: 11

А анаглиф версии этого фильма ниукого нет?

Создавать темы 05-Окт-2012 22:27

[Профиль]  [ЛС] 

Dlyaver

Стаж: 5 лет 2 месяца

Сообщений: 2

Скорости!!!!!

Создавать темы 09-Фев-2013 22:00

[Профиль]  [ЛС] 
Показать сообщения:    
Ответить на тему

Текущее время: 25-Ноя 01:28

Часовой пояс: UTC + 5



Вы не можете начинать темы
Вы не можете отвечать на сообщения
Вы не можете редактировать свои сообщения
Вы не можете удалять свои сообщения
Вы не можете голосовать в опросах
Вы не можете прикреплять файлы к сообщениям
Вы не можете скачивать файлы