Пила 7 3D / Saw 7 3D (Кевин Гротерт) [2010 г., ужасы, триллер, детектив, BDRip 1080p]

Страницы :  1, 2  След.

Ответить на тему
 

xakerjon ®

Стаж: 5 лет 8 месяцев

Сообщений: 8

Пила 7 3D / Saw 7 3D
Год выпуска: 2010
Страна: США
Жанр: ужасы, триллер, детектив
Продолжительность: 01:30:08
Перевод: профессиональный (полное дублирование)
Режиссер: Кевин Гротерт
Продюссер: Марк Бёрг, Орен Каулз, Трой Бегнод,
Сценарий: Патрик Мелтон, Маркус Данстэн
Бюджет: $20 000 000
Премьера в мире: 22 октября 2010
В ролях: Костас Мэндилор / Costas Mandylor, Шон Патрик Флэнери / Sean Patrick Flanery, Тобин Белл / Tobin Bell, Кэри Элвис / Cary Elwes, Бетси Расселл / Betsy Russell, Дин Армстронг / Dean Armstrong, Чэд Донелла / Chad Donella, Джина Холден / Gina Holden, Лоуренс Энтони / Laurence Anthony, Наоми Сникус / Naomi Snieckus
Описание: Жертвы Пилы, выжившие в предыдущих испытаниях, обращаются за психологической помощью к товарищу по несчастью Бобби Дагену. Но когда его собственные темные тайны всплывают на свет, развязывается новая волна террора.
Доп. информация: Формат 3D: Anamorph OverUnder
Качество: BDRip 1080p
Формат: MKV
Видео кодек: H.26x
Аудио кодек: DTS
Видео: 1920x1080, 23.976 fps, 8 677 Kbps
Аудио: Русский 48 kHz, 6 ch, ~448 kbps avg
Аудио: Английский 48 kHz, 6 ch, ~448 kbps avg
Аудио: Английский 48 kHz, 2 ch, ~224 kbps avg

Media Info

Video
ID : 1
Format : AVC
Format/Info : Advanced Video Codec
Format profile : [email protected]
Format settings, CABAC : Yes
Format settings, ReFrames : 3 frames
Muxing mode : Header stripping
Codec ID : V_MPEG4/ISO/AVC
Duration : 1h 30mn
Bit rate : 8 677 Kbps
Width : 1 920 pixels
Height : 1 080 pixels
Display aspect ratio : 16:9
Frame rate : 23.976 fps
Color space : YUV
Chroma subsampling : 4:2:0
Bit depth : 8 bits
Scan type : Progressive
Bits/(Pixel*Frame) : 0.175
Stream size : 5.47 GiB (83%)
Title : Video
Writing library : x264 core 112 r1834 a51816a
Encoding settings : cabac=1 / ref=4 / deblock=1:1:1 / analyse=0x3:0x133 / me=umh / subme=8 / psy=1 / psy_rd=1.00:0.15 / mixed_ref=1 / me_range=16 / chroma_me=1 / trellis=1 / 8x8dct=1 / cqm=0 / deadzone=21,11 / fast_pskip=1 / chroma_qp_offset=-3 / threads=6 / sliced_threads=0 / nr=0 / decimate=1 / interlaced=0 / constrained_intra=0 / bframes=8 / b_pyramid=1 / b_adapt=2 / b_bias=0 / direct=3 / weightb=1 / open_gop=0 / weightp=2 / keyint=250 / keyint_min=23 / scenecut=40 / intra_refresh=0 / rc_lookahead=50 / rc=crf / mbtree=1 / crf=21.0 / qcomp=0.60 / qpmin=0 / qpmax=51 / qpstep=4 / ip_ratio=1.40 / aq=1:1.00
Language : Russian
Default : Yes
Forced : No
Color primaries : BT.709-5, BT.1361, IEC 61966-2-4, SMPTE RP177
Transfer characteristics : BT.709-5, BT.1361
Matrix coefficients : BT.709-5, BT.1361, IEC 61966-2-4 709, SMPTE RP177
Audio #1
ID : 2
Format : DTS
Format/Info : Digital Theater Systems
Muxing mode : Header stripping
Codec ID : A_DTS
Duration : 1h 30mn
Bit rate mode : Constant
Bit rate : 755 Kbps
Channel(s) : 6 channels
Channel positions : Front: L C R, Side: L R, LFE
Sampling rate : 48.0 KHz
Bit depth : 24 bits
Compression mode : Lossy
Stream size : 487 MiB (7%)
Title : DTS - Rus
Language : Russian
Default : Yes
Forced : No
Audio #2
ID : 3
Format : DTS
Format/Info : Digital Theater Systems
Muxing mode : Header stripping
Codec ID : A_DTS
Duration : 1h 30mn
Bit rate mode : Constant
Bit rate : 755 Kbps
Channel(s) : 6 channels
Channel positions : Front: L C R, Side: L R, LFE
Sampling rate : 48.0 KHz
Bit depth : 24 bits
Compression mode : Lossy
Stream size : 487 MiB (7%)
Title : DTS -Eng
Language : English
Default : No
Forced : No
Text #1
ID : 4
Format : PGS
Muxing mode : zlib
Codec ID : S_HDMV/PGS
Codec ID/Info : The same subtitle format used on BDs/HD-DVDs
Title : Subtitles - eng
Language : English
Default : Yes
Forced : No
Text #2
ID : 5
Format : UTF-8
Codec ID : S_TEXT/UTF8
Codec ID/Info : UTF-8 Plain Text
Title : subtitle Rus
Language : Russian
Default : No
Forced : No

Скриншоты



Последний раз редактировалось: xakerjon (2012-05-04 16:18), всего редактировалось 3 раз(а)

Создавать темы 02-Май-2012 15:37

[Профиль]  [ЛС] 

Mixer City

Стаж: 6 лет 8 месяцев

Сообщений: 754

Симпатии: 63

xakerjon, допиши битрейт видео и аудио.

Создавать темы 03-Май-2012 00:14

[Профиль]  [ЛС] 

Judas Desperados

Стаж: 5 лет 7 месяцев

Сообщений: 185

Симпатии: 19

я в анаглиф качал, а с OverUnder разница существенная?

Создавать темы 19-Май-2012 14:58

[Профиль]  [ЛС] 

bubldin 2

Стаж: 5 лет 7 месяцев

Сообщений: 14

ага тут все цвета свои, и очки другие нужны и моник 3d

Создавать темы 22-Май-2012 19:49

[Профиль]  [ЛС] 

Nano95

Стаж: 7 лет 2 месяца

Сообщений: 139

Симпатии: 1

скоросьтиииии

Создавать темы 01-Сен-2012 16:36

[Профиль]  [ЛС] 

IIy3blPb

Стаж: 6 лет 9 месяцев

Сообщений: 86

Симпатии: 4

может название поправите ?? вроде как ни как пила 6 послед часть:) 7откуда взяли ВАЩЕ ХЗ:)

Создавать темы 17-Сен-2012 14:50

[Профиль]  [ЛС] 

Dieman

Стаж: 5 лет 8 месяцев

Сообщений: 177

Симпатии: 37

Вот хотел спросить, при просмотре таких фильмов нагружается ли процессор или видеокарта.И если нагружается, то как сильно(просто сам никогда подобным 3д не пользовался, только анаглифом)?

Создавать темы 17-Сен-2012 17:03

[Профиль]  [ЛС] 

Nano95

Стаж: 7 лет 2 месяца

Сообщений: 139

Симпатии: 1

IIy3blPb, ето пила 7 или пила 3d
Dieman, так же как и при просмотре hd видео

Создавать темы 19-Сен-2012 21:54

[Профиль]  [ЛС] 

Nano95

Стаж: 7 лет 2 месяца

Сообщений: 139

Симпатии: 1

IIy3blPb, ето пила 7 или пила 3d
Dieman, так же как и при просмотре hd видео

Создавать темы 19-Сен-2012 21:54

[Профиль]  [ЛС] 

TIMURKO

Стаж: 5 лет 8 месяцев

Сообщений: 42

Это реально 3д фильм где необходим тв 3д видюха 3д и очки 3д? или херня с бумажными очками

Создавать темы 28-Дек-2012 13:40

[Профиль]  [ЛС] 

TIMURKO

Стаж: 5 лет 8 месяцев

Сообщений: 42

СКОРОСТИ добавьте а то 25кб

Создавать темы 28-Дек-2012 13:43

[Профиль]  [ЛС] 

TIMURKO

Стаж: 5 лет 8 месяцев

Сообщений: 42

Что то не какого эффекта нет!!!

Создавать темы 29-Дек-2012 23:54

[Профиль]  [ЛС] 

tereshin2090

Стаж: 4 года 7 месяцев

Сообщений: 26

Симпатии: 1

А почему у меня две картинки..сверху и снизу...????Как бы два фильма склеели по длине и сделали одну картинку

Создавать темы 25-Янв-2013 15:29

[Профиль]  [ЛС] 

Stitch1990

Стаж: 5 лет 8 месяцев

Сообщений: 67

tereshin2090, а как должно быть? это же 3D

Создавать темы 25-Янв-2013 20:22

[Профиль]  [ЛС] 

tereshin2090

Стаж: 4 года 7 месяцев

Сообщений: 26

Симпатии: 1

не две одинаковые картинки одна сверху другая снизу...стерескопический режим включаешь также две картинки в "стереоскопе" или красно-синие очки не катят тут? если так то как просто фильм посмотреть? возможно ли это
и дайте скорости уже...12кб/с это же смешно!

Создавать темы 26-Янв-2013 00:45

[Профиль]  [ЛС] 
Показать сообщения:    
Ответить на тему

Текущее время: 20-Сен 01:48

Часовой пояс: UTC + 5



Вы не можете начинать темы
Вы не можете отвечать на сообщения
Вы не можете редактировать свои сообщения
Вы не можете удалять свои сообщения
Вы не можете голосовать в опросах
Вы не можете прикреплять файлы к сообщениям
Вы не можете скачивать файлы