PPV WWE - 2012.04.29 - Extreme Rules 2012 Preshow [2012 г., Рестлинг, HDTV]

Ответить на тему
 

Спартанец ®

Стаж: 5 лет 6 месяцев

Сообщений: 361

PPV WWE - 2012.04.29 - Extreme Rules 2012 Preshow
Год выпуска: 2012
Вид спорта: Рестлинг
Участники: Звезды WWE
Продолжительность: 00.27.12
Комментарий: профессиональный (двухголосый)
Язык комментариев: Русский
Описание: Новое PPV Extreme Rules 2012. Русская версия "пришоу"
Дата проведения: 29 апреля 2012.
Место проведения: Chicago, Illinois.
Музыкальная тема: Shinedown - Adrenaline.
Качество: HDTV
Формат: Mр4
Видео кодек: x264 / AVC
Видео: x264 704x400 25fps 1 500 Kbps
Аудио: Dolby AC3 48000Hz stereo 192 Kbps

MediaInfo

General
Format : MPEG-4
Format profile : Base Media
Codec ID : isom
File size : 319 MiB
Duration : 27mn 12s
Overall bit rate mode : Constant
Overall bit rate : 1 638 Kbps
Encoded date : UTC 2012-04-29 16:48:42
Tagged date : UTC 2012-04-29 16:48:42
Writing application : Yamb 2.1.0.0 [http://yamb.unite-video.com]
Video
ID : 2
Format : AVC
Format/Info : Advanced Video Codec
Format profile : [email protected]
Format settings, CABAC : Yes
Format settings, ReFrames : 3 frames
Codec ID : avc1
Codec ID/Info : Advanced Video Coding
Duration : 27mn 12s
Bit rate mode : Constant
Bit rate : 1 500 Kbps / 1 500 Kbps
Maximum bit rate : 2 518 Kbps
Width : 704 pixels
Height : 400 pixels
Display aspect ratio : 16:9
Frame rate mode : Constant
Frame rate : 25.000 fps
Standard : NTSC
Color space : YUV
Chroma subsampling : 4:2:0
Bit depth : 8 bits
Scan type : Progressive
Bits/(Pixel*Frame) : 0.213
Stream size : 281 MiB (88%)
Writing library : x264 core 114
Encoding settings : cabac=1 / ref=3 / deblock=1:0:0 / analyse=0x3:0x113 / me=hex / subme=7 / psy=1 / psy_rd=1.00:0.00 / mixed_ref=1 / me_range=16 / chroma_me=1 / trellis=1 / 8x8dct=1 / cqm=2 / deadzone=21,11 / fast_pskip=1 / chroma_qp_offset=-2 / threads=6 / sliced_threads=0 / slices=1 / nr=0 / decimate=1 / interlaced=0 / constrained_intra=0 / bframes=3 / b_pyramid=0 / b_adapt=1 / b_bias=0 / direct=1 / weightb=1 / open_gop=0 / weightp=2 / keyint=250 / keyint_min=25 / scenecut=40 / intra_refresh=0 / rc_lookahead=40 / rc=cbr / mbtree=1 / bitrate=1500 / ratetol=1.0 / qcomp=0.60 / qpmin=3 / qpmax=69 / qpstep=4 / vbv_maxrate=1500 / vbv_bufsize=1490 / nal_hrd=cbr / ip_ratio=1.40 / aq=1:1.00
Tagged date : UTC 2012-04-29 16:48:45
Color primaries : BT.470-6 System B, BT.470-6 System G, BT.601-6 625, BT.1358 625, BT.1700 625 PAL, BT.1700 625 SECAM
Transfer characteristics : BT.470-6 System B, BT.470-6 System G
Matrix coefficients : BT.470-6 System B, BT.470-6 System G, BT.601-6 625, BT.1358 625, BT.1700 625 PAL, BT.1700 625 SECAM, IEC 61966-2-4 601
Audio
ID : 3
Format : AC-3
Format/Info : Audio Coding 3
Mode extension : CM (complete main)
Codec ID : ac-3
Duration : 27mn 12s
Bit rate mode : Constant
Bit rate : 192 Kbps
Channel(s) : 2 channels
Channel positions : Front: L R
Sampling rate : 48.0 KHz
Bit depth : 16 bits
Compression mode : Lossy
Stream size : 37.4 MiB (12%)
Encoded date : UTC 2012-04-29 16:48:43
Tagged date : UTC 2012-04-29 16:48:45

Кард

United States Championship Math
Santino Marella vs. The Miz
Intercontinental Champion - Определение типа матча на PPV
Big Show vs. Cody Rhodes
И промо предстоящих боев на PPV.

Скриншоты

Создавать темы 03-Май-2012 21:09

[Профиль]  [ЛС] 

rey mysterio

Стаж: 5 лет 7 месяцев

Сообщений: 164

Спасибо огромное Спартанец
Улыбнись,
ШоУУУУУУ bz
Для кого как

Создавать темы 03-Май-2012 21:30

[Профиль]  [ЛС] 

Спартанец ®

Стаж: 5 лет 6 месяцев

Сообщений: 361

Не за что. Шоу не Шоу, а оно должно продолжаться ))

Создавать темы 03-Май-2012 21:32

[Профиль]  [ЛС] 

Pendalf

Стаж: 6 лет 2 месяца

Сообщений: 416

Симпатии: 34

Спартанец, в каждом вашем релизе правлю тех. данные. Битрейт аудио и видео забываете писать. Также, обратите внимание на обозначение видео кодека. Будьте добры, придерживайтесь такого оформления в след. раз

Создавать темы 04-Май-2012 01:39

[Профиль]  [ЛС] 

Спартанец ®

Стаж: 5 лет 6 месяцев

Сообщений: 361

Буду внимательнее Кэп :)

Создавать темы 04-Май-2012 06:29

[Профиль]  [ЛС] 

aaaaa

Стаж: 5 лет 6 месяцев

Сообщений: 64

Дайте скорость уже сам экстрим рулз посмотрел а пришоу нет

Создавать темы 07-Май-2012 19:34

[Профиль]  [ЛС] 
Показать сообщения:    
Ответить на тему

Текущее время: 23-Авг 19:04

Часовой пояс: UTC + 5



Вы не можете начинать темы
Вы не можете отвечать на сообщения
Вы не можете редактировать свои сообщения
Вы не можете удалять свои сообщения
Вы не можете голосовать в опросах
Вы не можете прикреплять файлы к сообщениям
Вы не можете скачивать файлы