PPV WWE - 2012.04.29 - Extreme Rules 2012 [2012 г., Рестлинг, HDTV]

Страницы :  1, 2  След.

Ответить на тему
 

Спартанец ®

Стаж: 5 лет 7 месяцев

Сообщений: 361

PPV WWE - 2012.04.29 - Extreme Rules 2012 Год выпуска: 2012
Вид спорта: Рестлинг
Участники: Звезды WWE
Продолжительность: 02.56.57
Комментарий: профессиональный (многоголосый, закадровый)
Описание: Новое PPV Extreme Rules 2012. Русская версия.
Дата проведения: 29 апреля 2012.
Место проведения: Chicago, Illinois.
Музыкальная тема: Shinedown - Adrenaline.
Качество: HDTV
Формат: Mр4
Видео кодек: x264 / AVC
Видео: x264 704x400 29.97fps 1443 kbps
Аудио: Dolby AC3 48000Hz stereo 192 Kbps

MediaInfo

General
Format : MPEG-4
Format profile : Base Media
Codec ID : isom
File size : 2.03 GiB
Duration : 2h 56mn
Overall bit rate : 1 638 Kbps
Encoded date : UTC 2012-04-29 16:33:33
Tagged date : UTC 2012-04-29 16:33:33
Writing application : Yamb 2.1.0.0 [http://yamb.unite-video.com]
Video
ID : 1
Format : AVC
Format/Info : Advanced Video Codec
Format profile : [email protected]
Format settings, CABAC : Yes
Format settings, ReFrames : 4 frames
Codec ID : avc1
Codec ID/Info : Advanced Video Coding
Duration : 2h 56mn
Bit rate : 1 443 Kbps
Maximum bit rate : 2 548 Kbps
Width : 704 pixels
Height : 400 pixels
Display aspect ratio : 16:9
Frame rate mode : Constant
Frame rate : 29.970 fps
Color space : YUV
Chroma subsampling : 4:2:0
Bit depth : 8 bits
Scan type : Progressive
Bits/(Pixel*Frame) : 0.171
Stream size : 1.78 GiB (88%)
Writing library : x264 core 122 r2184 5c85e0a
Encoding settings : cabac=1 / ref=5 / deblock=1:0:0 / analyse=0x3:0x113 / me=umh / subme=9 / psy=1 / psy_rd=1.00:0.00 / mixed_ref=1 / me_range=16 / chroma_me=1 / trellis=1 / 8x8dct=1 / cqm=0 / deadzone=21,11 / fast_pskip=1 / chroma_qp_offset=-2 / threads=12 / sliced_threads=0 / nr=0 / decimate=1 / interlaced=0 / bluray_compat=0 / constrained_intra=0 / bframes=3 / b_pyramid=1 / b_adapt=2 / b_bias=0 / direct=3 / weightb=1 / open_gop=0 / weightp=2 / keyint=300 / keyint_min=30 / scenecut=40 / intra_refresh=0 / rc_lookahead=40 / rc=crf / mbtree=1 / crf=19.0 / qcomp=0.60 / qpmin=0 / qpmax=69 / qpstep=4 / vbv_maxrate=1500 / vbv_bufsize=1450 / crf_max=0.0 / nal_hrd=none / ip_ratio=1.40 / aq=1:1.00
Encoded date : UTC 2011-09-08 11:43:25
Tagged date : UTC 2012-04-29 16:36:14
Audio
ID : 2
Format : AC-3
Format/Info : Audio Coding 3
Mode extension : CM (complete main)
Codec ID : ac-3
Duration : 2h 56mn
Bit rate mode : Constant
Bit rate : 192 Kbps
Channel(s) : 2 channels
Channel positions : Front: L R
Sampling rate : 48.0 KHz
Bit depth : 16 bits
Compression mode : Lossy
Stream size : 243 MiB (12%)
Encoded date : UTC 2012-04-29 16:35:40
Tagged date : UTC 2012-04-29 16:36:14

Кард

Randy Orton vs. Kane - Falls Count Anywhere match
Big Show (c) vs. Cody Rhodes - Stipulation will be decided via a wheel spin during the pre-show for the WWE Intercontinental Championship
Sheamus (c) vs. Daniel Bryan - 2-out-of-3 falls match for the World Heavyweight Championship
CM Punk (c) vs. Chris Jericho - Chicago Street Fight for the WWE Championship
Brock Lesnar vs. John Cena - Extreme Rules match
Nikki Bella (c) vs. Beth Phoenix - WWE Divas Championship

Скриншоты

Создавать темы 03-Май-2012 21:27

[Профиль]  [ЛС] 

Спартанец ®

Стаж: 5 лет 7 месяцев

Сообщений: 361

Готово :)

Создавать темы 03-Май-2012 21:28

[Профиль]  [ЛС] 

slap_nuts

Стаж: 7 лет 3 месяца

Сообщений: 85

Спартанец, Герой!!!

Создавать темы 03-Май-2012 21:29

[Профиль]  [ЛС] 

Спартанец ®

Стаж: 5 лет 7 месяцев

Сообщений: 361

Я только учусь :))

Создавать темы 03-Май-2012 21:30

[Профиль]  [ЛС] 

Kroys

Стаж: 5 лет 11 месяцев

Сообщений: 187

Симпатии: 1

ууууу весит блин :( долго качать))

Создавать темы 04-Май-2012 01:32

[Профиль]  [ЛС] 

NodirAgenT

Стаж: 6 лет 5 месяцев

Сообщений: 204

Спартанец Респект и уважуха ты реальный Пацантре " Нет Это СПппПППАРТА"

_________________
Подпись отключена за нарушение правил форума

Создавать темы 04-Май-2012 09:05

[Профиль]  [ЛС] 

Спартанец ®

Стаж: 5 лет 7 месяцев

Сообщений: 361

Все же для вас пацаны :)

Создавать темы 04-Май-2012 20:20

[Профиль]  [ЛС] 

Спартанец ®

Стаж: 5 лет 7 месяцев

Сообщений: 361

какой торрент качалка лучше а то скорость ваше капец низкая
РУтрекер.орг

Создавать темы 05-Май-2012 16:03

[Профиль]  [ЛС] 

LiX

Стаж: 6 лет 3 месяца

Сообщений: 254

Симпатии: 6

Огромное спс щя скачаю, но пож не уходите с раздачи!

Создавать темы 05-Май-2012 22:59

[Профиль]  [ЛС] 

LiX

Стаж: 6 лет 3 месяца

Сообщений: 254

Симпатии: 6

Всё скачал! Я остановил все раздачи и загрузки! И теперь раздаю 24 часа!
К А Ч А Й Т Е !

Создавать темы 06-Май-2012 19:39

[Профиль]  [ЛС] 

rey mysterio

Стаж: 5 лет 8 месяцев

Сообщений: 164

Как Джон Сина умудрился выиграть матч я не понемаю Леснар его так избил аж жалко стало и под конец провёсти ему F-U

Создавать темы 06-Май-2012 23:36

[Профиль]  [ЛС] 

Спартанец ®

Стаж: 5 лет 7 месяцев

Сообщений: 361

Сина не мог проиграть. У него выбора не было. Проиграй он Леснару и не знаешь что станет с его карьерой. А Леснар, по любому стал бы новым лицом Компании ) Да и металические цепи никто не отменял ))

Создавать темы 07-Май-2012 06:51

[Профиль]  [ЛС] 

aaaaa

Стаж: 5 лет 7 месяцев

Сообщений: 64

Спартанец ждем с тебя овер лимит)
Там сина с лоуранитсом будут дратся,думаю хриплый убежит а за него Отунга забежит!

Создавать темы 07-Май-2012 12:10

[Профиль]  [ЛС] 

Спартанец ®

Стаж: 5 лет 7 месяцев

Сообщений: 361

У Леснара там контракт был с Лоуринайтисом заключен ну оооооочень "шоколадный" )) ему все разрешалось. "Игрок" не мог пойти на такое. В итоге получил со спины и как результат-сломанная(ну или вывихнутая) рука. А Леснар сам себе приговор этим подписал.

Создавать темы 07-Май-2012 20:56

[Профиль]  [ЛС] 

LiX

Стаж: 6 лет 3 месяца

Сообщений: 254

Симпатии: 6

Спартанец, недавно прошел Оверлимит залей пож если есть возможность

Создавать темы 21-Май-2012 13:14

[Профиль]  [ЛС] 
Показать сообщения:    
Ответить на тему

Текущее время: 19-Сен 18:40

Часовой пояс: UTC + 5



Вы не можете начинать темы
Вы не можете отвечать на сообщения
Вы не можете редактировать свои сообщения
Вы не можете удалять свои сообщения
Вы не можете голосовать в опросах
Вы не можете прикреплять файлы к сообщениям
Вы не можете скачивать файлы