Апокалипсис / Apocalypto (Мэл Гибсон) [2006 г., боевик, драма, приключения, BDRip]

Ответить на тему
 

antonio ®

Стаж: 5 лет 6 месяцев

Сообщений: 88

Симпатии: 1

Апокалипсис / Apocalypto
Год выпуска: 2006
Страна: США
Жанр: боевик, драма, приключения
Продолжительность: 139 мин. / 02:18:18
Перевод: профессиональный двухголосый
Режиссер: Мэл Гибсон
Продюссер: Брюс Дэвей, Мэл Гибсон, Вики Кристиансон
Сценарий: Мэл Гибсон, Фарад Сафиниа
Бюджет: $40 000 000
Премьера в мире: 8 декабря 2006
В ролях: Руди Янблад, Далия Эрнандез, Джонатан Брюэр, Моррис Бердйеллоухэд, Карлос Эмилио Баез, Рамирез Амилкар, Израэл Контрерас, Израэль Риос, Мария Изабель Диаз, Эспиридион Акоста Кэш
Описание: В фильме показана жизнь цивилизации майя до прихода испанских конкистадоров: жестокие войны с соседними племенами, человеческие жертвоприношения, загадочные мистические ритуалы. В один день рушится мир индейца по имени Лапа Ягуара. Его деревню захватывает соседнее племя, уничтожая хижины, забирая местных жителей в плен. Его ведут в город, чтобы принести в жертву богам. Перед лицом неминуемой смерти Лапа Ягуара должен побороть свои самые сильные страхи и совершить отчаянный рывок, чтобы спасти то, что ему дорого...
R - Лицам до 17 лет обязательно присутствие взрослого
 
Доп. информация: фильм не для слабонервных!
Качество: HDRip
Формат: AVI
Видео кодек: XviD
Аудио кодек: AC3
Видео: MPEG-4 Visual , 720x384 , 23.976 fps , 2089 Kbps
Аудио: AC-3 , 48000Hz , 448 Kbps 6 (ch)

Аудио2: Битрейт : AC-3, 448 Кбит/сек , 6 каналов , 48,0 КГц

Скриншоты





медиа инфо

Общее
Полное имя : D:\Movies\apocalypto_rus_orig_m.avi
Формат : AVI
Формат/Информация : Audio Video Interleave
Профиль формата : OpenDML
Размер файла : 2,90 Гбайт
Продолжительность : 2 ч. 18 м.
Общий поток : 3000 Кбит/сек
Название фильма : Апокалипто / Apocalypto (2006) BDRip
Режиссёр : Lovelas
Программа кодирования : VirtualDubMod 1.5.10.2 (build 2542/release)
Правообладатель : http://www.hellywood.ru
Примечание : 24.05.2009
Видео
Идентификатор : 0
Формат : MPEG-4 Visual
Профиль формата : Advanced [email protected]
Параметр BVOP формата : 1
Параметр QPel формата : Нет
Параметр GMC формата : Без точки перехода
Параметр матрицы формата : Default (MPEG)
Идентификатор кодека : XVID
Идентификатор кодека/Подсказка : XviD
Продолжительность : 2 ч. 18 м.
Битрейт : 2089 Кбит/сек
Ширина : 720 пикселей
Высота : 384 пикселя
Соотношение сторон : 16:9
Соотношение сторон в оригинале : 1,85:1
Частота кадров : 23,976 кадра/сек
Цветовое пространство : YUV
Субдискретизация насыщенности : 4:2:0
Битовая глубина : 8 бит
Тип развёртки : Прогрессивная
Метод сжатия : С потерями
Бит/(Пиксели*Кадры) : 0.315
Размер потока : 2,02 Гбайт (70%)
Библиотека кодирования : XviD 1.2.1 (UTC 2008-12-04)
Аудио #1
Идентификатор : 1
Формат : AC-3
Формат/Информация : Audio Coding 3
Расширение режима : CM (complete main)
Параметр Endianness формата : Big
Идентификатор кодека : 2000
Продолжительность : 2 ч. 18 м.
Вид битрейта : Постоянный
Битрейт : 448 Кбит/сек
Каналы : 6 каналов
Расположение каналов : Front: L C R, Side: L R, LFE
Частота : 48,0 КГц
Битовая глубина : 16 бит
Метод сжатия : С потерями
Размер потока : 443 Мбайт (15%)
Выравнивание : Разделение по промежуткам
Продолжительность промежутка : 42 мс. (1,00 видеокадр)
Время предзагрузки промежутка : 500 мс.
Аудио #2
Идентификатор : 2
Формат : AC-3
Формат/Информация : Audio Coding 3
Расширение режима : CM (complete main)
Параметр Endianness формата : Big
Идентификатор кодека : 2000
Продолжительность : 2 ч. 18 м.
Вид битрейта : Постоянный
Битрейт : 448 Кбит/сек
Каналы : 6 каналов
Расположение каналов : Front: L C R, Side: L R, LFE
Частота : 48,0 КГц
Битовая глубина : 16 бит
Метод сжатия : С потерями
Размер потока : 443 Мбайт (15%)
Выравнивание : Разделение по промежуткам
Продолжительность промежутка : 42 мс. (1,00 видеокадр)
Время предзагрузки промежутка : 500 мс.


Последний раз редактировалось: antonio (2012-06-28 12:20), всего редактировалось 6 раз(а)

Создавать темы 05-Май-2012 17:14

[Профиль]  [ЛС] 

Mixer City

Стаж: 6 лет 7 месяцев

Сообщений: 754

Симпатии: 63

antonio, допиши секунды к времени и перевод.

Создавать темы 05-Май-2012 23:49

[Профиль]  [ЛС] 

antonio ®

Стаж: 5 лет 6 месяцев

Сообщений: 88

Симпатии: 1

надеюсь что вам понравится !

Создавать темы 21-Май-2012 14:41

[Профиль]  [ЛС] 

muzafar

Стаж: 6 лет 9 месяцев

Сообщений: 30

две дорожки и оба без перевода как настроить перевод?

Создавать темы 17-Июн-2012 09:45

[Профиль]  [ЛС] 

antonio ®

Стаж: 5 лет 6 месяцев

Сообщений: 88

Симпатии: 1

zipler, даю по максимому

Создавать темы 25-Авг-2012 10:42

[Профиль]  [ЛС] 

Дмитриев

Стаж: 7 лет 2 месяца

Сообщений: 139

Симпатии: 12

отличный фильм от Мэл Гибсона

Создавать темы 09-Авг-2013 22:00

[Профиль]  [ЛС] 

Albert536

Стаж: 4 года 5 месяцев

Сообщений: 6

Газу ребята, ГАЗУУУУУУУУУУУУУУУ!

Создавать темы 11-Сен-2013 01:12

[Профиль]  [ЛС] 

daler

Стаж: 5 лет

Сообщений: 14

раздавайте народ ато даже не хочет двигаться ...

Создавать темы 10-Июн-2014 04:15

[Профиль]  [ЛС] 
Показать сообщения:    
Ответить на тему

Текущее время: 18-Авг 21:28

Часовой пояс: UTC + 5



Вы не можете начинать темы
Вы не можете отвечать на сообщения
Вы не можете редактировать свои сообщения
Вы не можете удалять свои сообщения
Вы не можете голосовать в опросах
Вы не можете прикреплять файлы к сообщениям
Вы не можете скачивать файлы