WWE Monday Night Raw 2012/04/30 [2012 г., Рестлинг, HDTV]

Ответить на тему
 

Спартанец ®

Стаж: 5 лет 8 месяцев

Сообщений: 361

WWE Monday Night Raw 2012/04/30
Год выпуска: 2012
Вид спорта: Рестлинг
Участники: Звезды WWE
Продолжительность: 01.37.30
Комментарий: профессиональный (многоголосый, закадровый)
Язык комментариев: Русский
Описание: Еженедельный выпуск RAW. Выпуск от 30-го апреля 2012 года
Качество: HDTV
Формат: Mр4
Видео кодек: x264 \ AVC
Аудио кодек: MP3
Видео: MPEG4 Video (H264), 704x400, 29.97fps, 1 427 Kbps
Аудио: MPEG Audio Layer 3, 48000Hz, stereo, 128kbps

MediaInfo

Format : AVC
Format/Info : Advanced Video Codec
Format profile : [email protected]
Format settings, CABAC : Yes
Format settings, ReFrames : 4 frames
Codec ID : avc1
Codec ID/Info : Advanced Video Coding
Duration : 1h 37mn
Bit rate : 1 427 Kbps
Maximum bit rate : 2 612 Kbps
Width : 704 pixels
Height : 400 pixels
Display aspect ratio : 16:9
Frame rate mode : Constant
Frame rate : 29.970 fps
Color space : YUV
Chroma subsampling : 4:2:0
Bit depth : 8 bits
Scan type : Progressive
Bits/(Pixel*Frame) : 0.169
Stream size : 995 MiB (92%)
Writing library : x264 core 122 r2184 5c85e0a
Encoding settings : cabac=1 / ref=5 / deblock=1:0:0 / analyse=0x3:0x113 / me=umh / subme=9 / psy=1 / psy_rd=1.00:0.00 / mixed_ref=1 / me_range=16 / chroma_me=1 / trellis=1 / 8x8dct=1 / cqm=0 / deadzone=21,11 / fast_pskip=1 / chroma_qp_offset=-2 / threads=12 / sliced_threads=0 / nr=0 / decimate=1 / interlaced=0 / bluray_compat=0 / constrained_intra=0 / bframes=3 / b_pyramid=1 / b_adapt=2 / b_bias=0 / direct=3 / weightb=1 / open_gop=0 / weightp=2 / keyint=300 / keyint_min=30 / scenecut=40 / intra_refresh=0 / rc_lookahead=40 / rc=crf / mbtree=1 / crf=19.0 / qcomp=0.60 / qpmin=0 / qpmax=69 / qpstep=4 / vbv_maxrate=1500 / vbv_bufsize=1450 / crf_max=0.0 / nal_hrd=none / ip_ratio=1.40 / aq=1:1.00
Encoded date : UTC 2011-09-08 11:43:25
Tagged date : UTC 2012-04-30 13:36:52
Audio
ID : 2
Format : MPEG Audio
Format version : Version 1
Format profile : Layer 3
Mode : Joint stereo
Mode extension : MS Stereo
Codec ID : 6B
Duration : 1h 37mn
Bit rate mode : Constant
Bit rate : 128 Kbps
Maximum bit rate : 132 Kbps
Channel(s) : 2 channels
Sampling rate : 48.0 KHz
Compression mode : Lossy
Stream size : 89.3 MiB (8%)
Encoded date : UTC 2012-04-30 13:36:46
Tagged date : UTC 2012-04-30 13:36:52

Kaрд

The Miz vs. Santino Marella – Beat the Clock Challenge
Layla vs. The Bellas - Triple Threat Match
Chris Jericho vs. Big Show – Beat the Clock Challenge
Brodus Clay vs. JTG
Randy Orton vs. Jack Swagger – Beat the Clock Challenge
Kofi Kingston and R-Truth vs. Primo and Epico - WWE Tag Team Championship
Kane vs. The Great Khali – Beat the Clock Challenge
Daniel Bryan vs. Jerry "The King" Lawler – Beat the Clock Challenge

Скриншоты

Создавать темы 06-Май-2012 08:44

[Профиль]  [ЛС] 

RokC

Стаж: 5 лет 9 месяцев

Сообщений: 56

да я после этого выпуска стал ненавидить Джона Лоуринайтеса в миллион раз а джона сину зауважал

Создавать темы 06-Май-2012 13:52

[Профиль]  [ЛС] 

Спартанец ®

Стаж: 5 лет 8 месяцев

Сообщений: 361

Ну Лоуринайтис замахнулся конечно :)) Сина его и без обоих рук, одним лбом уложит. На что Лоуринайтис надеется ? ))

Создавать темы 06-Май-2012 15:51

[Профиль]  [ЛС] 

RokC

Стаж: 5 лет 9 месяцев

Сообщений: 56

Он надеется на Отангу или Тенсая а может даже и Брока

Создавать темы 07-Май-2012 12:37

[Профиль]  [ЛС] 

Kroys

Стаж: 6 лет

Сообщений: 187

Симпатии: 1

да да правильней будет надеется на Брока , но всё же , за сину пойдут больше чем за Лоринайтеса :)

Создавать темы 07-Май-2012 18:49

[Профиль]  [ЛС] 

Спартанец ®

Стаж: 5 лет 8 месяцев

Сообщений: 361

Леснара уволили же. Если он вмешается в бой, его в обезьянник посадят копы местные. Врятли он захочет такой перспективы для себя )) А вот Тенсай *ука может )) Отунга не соперник. Ну если конечно хендестик не возьмет :)))

Создавать темы 07-Май-2012 20:52

[Профиль]  [ЛС] 

Kroys

Стаж: 6 лет

Сообщений: 187

Симпатии: 1

Леснара уволили же. Если он вмешается в бой, его в обезьянник посадят копы местные. Врятли он захочет такой перспективы для себя )) А вот Тенсай *ука может )) Отунга не соперник. Ну если конечно хендестик не возьмет :)))
хехе ну в принципе да ) ппц нэта не было , тока щас появился ) пора качать))) вот уже extreme rules скачал почти ) ща это начну)

Создавать темы 07-Май-2012 21:35

[Профиль]  [ЛС] 

RokC

Стаж: 5 лет 9 месяцев

Сообщений: 56

Я хочу чтобы Лауринайтеса свергнули с главы хотя бы Смакдауна и было бы интересно если бы Роди Пайпер занял эту должность

Создавать темы 09-Май-2012 18:57

[Профиль]  [ЛС] 

Спартанец ®

Стаж: 5 лет 8 месяцев

Сообщений: 361

Я хочу чтобы Лауринайтеса свергнули с главы хотя бы Смакдауна и было бы интересно если бы Роди Пайпер занял эту должность
а мне кажется, после овер зе лимит, Лоуринайтиса сделают помощником Тедди )) и вот тут он и оторвется за все обиды и унижения ))

Создавать темы 09-Май-2012 19:51

[Профиль]  [ЛС] 

rey mysterio

Стаж: 5 лет 9 месяцев

Сообщений: 164

Лоуринайтес себе могилу откопал , поскорее бы эти 10 дней прошли)

Создавать темы 10-Май-2012 01:53

[Профиль]  [ЛС] 

RokC

Стаж: 5 лет 9 месяцев

Сообщений: 56

Но что что но Лоуринайтес делает действительно интересные бои

Создавать темы 10-Май-2012 22:04

[Профиль]  [ЛС] 

aeroport

Стаж: 5 лет 6 месяцев

Сообщений: 1

сина это сила

Создавать темы 10-Май-2012 22:34

[Профиль]  [ЛС] 

rey mysterio

Стаж: 5 лет 9 месяцев

Сообщений: 164

сина это танк а не сила, сила это биг шоу , грит али , кейн(болшая красная махина) ,гробовщик, брок леснар и т.д

Создавать темы 10-Май-2012 23:31

[Профиль]  [ЛС] 
Показать сообщения:    
Ответить на тему

Текущее время: 21-Окт 11:31

Часовой пояс: UTC + 5



Вы не можете начинать темы
Вы не можете отвечать на сообщения
Вы не можете редактировать свои сообщения
Вы не можете удалять свои сообщения
Вы не можете голосовать в опросах
Вы не можете прикреплять файлы к сообщениям
Вы не можете скачивать файлы