Вход в никуда / Enter Nowhere (Джек Хеллер / Jack Heller) [2011, США, ужасы, триллер, детектив, DVDRip] AVO + Original ENG

Ответить на тему
 

farhod ®

Стаж: 7 лет 4 месяца

Сообщений: 104

Симпатии: 4

Вход в никуда / Enter Nowhere- -Год выпуска: 2011
Страна: США
Жанр: ужасы, триллер, детектив
Продолжительность: 90 мин. / 01:29:27
Перевод: Одноголосый (закадровый) [Гундос]
-Режиссер: Джек Хеллер
Продюссер: Джек Хеллер, Даллас Зонньер, Шоун Кристенсен
Сценарий: Шоун Кристенсен, Джейсон Р. Долан
-Бюджет: 22 октября 2011
Премьера в мире: 22 октября 2011
-В ролях: Сара Пэкстон, Скотт Иствуд, Шон Сайпос, Кристофер Денхам, Кэтерин Уотерстон, Лей Лезарк, Джесси Перез-Описание: В центре сюжета фильма несколько героев, оказавшихся волей случая в безлюдном сверхъестественном лесу. Здесь судьбы людей переплетаются жестоким образом. Зайдя друг за другом в пустующую сторожку наши герои возможно совершают большую ошибку... Или?-- R - Лицам до 17 лет обязательно присутствие взрослого
 
Качество: DVDRip
Формат: AVI
Видео кодек: XviD
Аудио кодек: AC3
Видео: 704х304, 23.976 fps, 1 353 Kbps
Аудио #1: 48.0 KHz, 6 ch, 448 Kbps [RUS]
Аудио #2: 48.0 KHz, 6 ch, 448 Kbps [ENG]

MediaInfo

Complete name :Вход в никуда.2011.HDRip.avi
Format : AVI
Format/Info : Audio Video Interleave
File size : 1.47 GiB
Duration : 1h 29mn
Overall bit rate : 2 354 Kbps
Writing application : VirtualDubMod 1.5.10.1 (build 2366/release)
Writing library : VirtualDubMod build 2366/release
Comment : рип Миллиган - http://asiamorte.com
Video #0
ID : 0
Format : MPEG-4 Visual
Format profile : [email protected]
Format settings, BVOP : Yes
Format settings, QPel : No
Format settings, GMC : No warppoints
Format settings, Matrix : Default (H.263)
Codec ID : XVID
Codec ID/Hint : XviD
Duration : 1h 29mn
Bit rate : 1 353 Kbps
Width : 704 pixels
Height : 304 pixels
Display aspect ratio : 2.35:1
Frame rate : 23.976 fps
Resolution : 24 bits
Colorimetry : 4:2:0
Scan type : Progressive
Bits/(Pixel*Frame) : 0.264
Stream size : 866 MiB (58%)
Writing library : XviD 1.2.1 (UTC 2008-12-04)
Audio #1
ID : 1
Format : AC-3
Format/Info : Audio Coding 3
Codec ID : 2000
Duration : 1h 29mn
Bit rate mode : Constant
Bit rate : 448 Kbps
Channel(s) : 6 channels
Channel positions : Front: L C R, Surround: L R, LFE
Sampling rate : 48.0 KHz
Stream size : 287 MiB (19%)
Alignment : Split accross interleaves
Audio #2
ID : 2
Format : AC-3
Format/Info : Audio Coding 3
Codec ID : 2000
Duration : 1h 29mn
Bit rate mode : Constant
Bit rate : 448 Kbps
Channel(s) : 6 channels
Channel positions : Front: L C R, Surround: L R, LFE
Sampling rate : 48.0 KHz
Stream size : 287 MiB (19%)
Alignment : Split accross interleaves

Скриншоты

Создавать темы 08-Май-2012 10:55

[Профиль]  [ЛС] 

farhod ®

Стаж: 7 лет 4 месяца

Сообщений: 104

Симпатии: 4

Гундос

"Одноголосый (закадровый) Гундос" т.к в сети появилась ещё одна озвучка от другого человека, чтоб люди не путались.

Создавать темы 08-Май-2012 10:59

[Профиль]  [ЛС] 

Pendalf

Стаж: 6 лет 5 месяцев

Сообщений: 416

Симпатии: 34

farhod, тех. данные второй дорожки укажите

Создавать темы 08-Май-2012 15:40

[Профиль]  [ЛС] 

farhod ®

Стаж: 7 лет 4 месяца

Сообщений: 104

Симпатии: 4

яже добавил инфо немогу редактировать показывает ошибки Ajax error in: ./ajax.php
0 error

Создавать темы 08-Май-2012 18:46

[Профиль]  [ЛС] 

arslan-mukatov

Стаж: 5 лет 9 месяцев

Сообщений: 74

фильм интересный, стоит качать???

Создавать темы 11-Май-2012 22:48

[Профиль]  [ЛС] 
Показать сообщения:    
Ответить на тему

Текущее время: 19-Ноя 21:16

Часовой пояс: UTC + 5



Вы не можете начинать темы
Вы не можете отвечать на сообщения
Вы не можете редактировать свои сообщения
Вы не можете удалять свои сообщения
Вы не можете голосовать в опросах
Вы не можете прикреплять файлы к сообщениям
Вы не можете скачивать файлы