WWE Friday Night Smackdown 2012/05/04 [2012 г., Рестлинг, HDTV]

Ответить на тему
 

Спартанец ®

Стаж: 5 лет 7 месяцев

Сообщений: 361

WWE Friday Night Smackdown 2012/05/04
Год выпуска: 2012
Вид спорта: Рестлинг
Участники: Звезды WWE
Продолжительность: 01.22.44
Комментарий: профессиональный (многоголосый, закадровый)
Описание: Один из пятничных вечеров в Smackdown. Выпуск от 4-го мая 2012 года
Качество: HDTV
Формат: Mp4
Видео кодек: x264 / AVC
Аудио кодек: AC3
Видео: MPEG4 Video (H264), 1280x720, 25fps, 4 000 Kbps
Аудио: Dolby AC3, 48000Hz, 2ch (stereo), 192 Kbps

Скриншоты

Кард

* Non-Title Match: Sheamus © vs. Daniel Bryan
* Non-Title Match: Kofi Kingston and R Truth © vs. Hunico and Camacho
* Brodus Clay vs. Jack Swagger
* Non-Title Match: Layla © vs. Natalya
* Randy Orton and Big Show vs. Cody Rhodes and Kane
* Ryback in Action

MediaInfo

General
Format : MPEG-4
Format profile : Base Media
Codec ID : isom
File size : 2.42 GiB
Duration : 1h 22mn
Overall bit rate : 4 196 Kbps
Encoded date : UTC 2012-05-03 20:43:15
Tagged date : UTC 2012-05-03 20:43:15
Writing application : Yamb 2.1.0.0 [http://yamb.unite-video.com]
Video
ID : 1
Format : AVC
Format/Info : Advanced Video Codec
Format profile : [email protected]
Format settings, CABAC : Yes
Format settings, ReFrames : 3 frames
Codec ID : avc1
Codec ID/Info : Advanced Video Coding
Duration : 1h 22mn
Bit rate : 4 000 Kbps
Maximum bit rate : 26.6 Mbps
Width : 1 280 pixels
Height : 720 pixels
Display aspect ratio : 16:9
Frame rate mode : Constant
Frame rate : 25.000 fps
Color space : YUV
Chroma subsampling : 4:2:0
Bit depth : 8 bits
Scan type : Progressive
Bits/(Pixel*Frame) : 0.174
Stream size : 2.31 GiB (95%)
Writing library : x264 core 120
Encoding settings : cabac=1 / ref=3 / deblock=1:0:0 / analyse=0x3:0x113 / me=hex / subme=7 / psy=1 / psy_rd=1.00:0.00 / mixed_ref=1 / me_range=16 / chroma_me=1 / trellis=1 / 8x8dct=1 / cqm=0 / deadzone=21,11 / fast_pskip=1 / chroma_qp_offset=-2 / threads=9 / sliced_threads=0 / nr=0 / decimate=1 / interlaced=0 / bluray_compat=0 / constrained_intra=0 / bframes=3 / b_pyramid=0 / b_adapt=2 / b_bias=0 / direct=1 / weightb=1 / open_gop=0 / weightp=1 / keyint=250 / keyint_min=25 / scenecut=40 / intra_refresh=0 / rc_lookahead=40 / rc=abr / mbtree=1 / bitrate=4000 / ratetol=1.0 / qcomp=0.60 / qpmin=10 / qpmax=51 / qpstep=4 / ip_ratio=1.40 / aq=1:1.00
Encoded date : UTC 2012-05-04 07:13:34
Tagged date : UTC 2012-05-03 20:46:24
Color primaries : BT.709-5, BT.1361, IEC 61966-2-4, SMPTE RP177
Transfer characteristics : BT.709-5, BT.1361
Matrix coefficients : BT.709-5, BT.1361, IEC 61966-2-4 709, SMPTE RP177
Audio
ID : 2
Format : AC-3
Format/Info : Audio Coding 3
Mode extension : CM (complete main)
Codec ID : ac-3
Duration : 1h 22mn
Bit rate mode : Constant
Bit rate : 192 Kbps
Channel(s) : 2 channels
Channel positions : Front: L R
Sampling rate : 48.0 KHz
Bit depth : 16 bits
Compression mode : Lossy
Stream size : 114 MiB (5%)
Encoded date : UTC 2012-05-03 20:46:09
Tagged date : UTC 2012-05-03 20:46:24


Последний раз редактировалось: Спартанец (2012-05-09 13:05), всего редактировалось 1 раз

Создавать темы 08-Май-2012 22:46

[Профиль]  [ЛС] 

majestic

Стаж: 6 лет 4 месяца

Сообщений: 52

Симпатии: 12

Спартанец, а "WWE WrestleMania XXVIII" в таком же качестве (720p) есть?
спасибо aa

Создавать темы 09-Май-2012 01:23

[Профиль]  [ЛС] 

Спартанец ®

Стаж: 5 лет 7 месяцев

Сообщений: 361

Спартанец, а "WWE WrestleMania XXVIII" в таком же качестве (720p) есть?
спасибо aa
Нет, нету )

Создавать темы 09-Май-2012 06:02

[Профиль]  [ЛС] 

Kroys

Стаж: 5 лет 11 месяцев

Сообщений: 187

Симпатии: 1

а чё весит много так ??

Создавать темы 09-Май-2012 13:08

[Профиль]  [ЛС] 

Спартанец ®

Стаж: 5 лет 7 месяцев

Сообщений: 361

а чё весит много так ??
1280x720, 25fps, 4 000 Kbps

Создавать темы 09-Май-2012 15:42

[Профиль]  [ЛС] 

Kroys

Стаж: 5 лет 11 месяцев

Сообщений: 187

Симпатии: 1

когда раздача ???

Создавать темы 10-Май-2012 11:04

[Профиль]  [ЛС] 
Показать сообщения:    
Ответить на тему

Текущее время: 21-Сен 15:41

Часовой пояс: UTC + 5



Вы не можете начинать темы
Вы не можете отвечать на сообщения
Вы не можете редактировать свои сообщения
Вы не можете удалять свои сообщения
Вы не можете голосовать в опросах
Вы не можете прикреплять файлы к сообщениям
Вы не можете скачивать файлы