12 стульев (2 части) (Леонид Гайдай) [1971 г., DVDRip]

Ответить на тему
 

antonio ®

Стаж: 5 лет 10 месяцев

Сообщений: 88

Симпатии: 1

12 стульев (2 части)- Год выпуска: 1971
Продолжительность: 02:32:42
Режиссер: Леонид Гайдай
В ролях: Арчил Гомиашвили, Сергей Филиппов, Михаил Пуговкин, Наталья Крачковская, Наталья Воробьева, Гликерия Богданова-Чеснокова, Нина Гребешкова, Юрий Никулин, Наталья Варлей, Клара Румянова
Описание: Во время революции и последовавшего за ней краткого периода военного коммунизма многие прятали свои ценности как можно надежнее. И вот Ипполит Матвеевич Воробьянинов, бывший Старгородский предводитель дворянства и светский лев, а ныне — скромный делопроизводитель ЗАГСа, узнает от умирающей тещи, что некогда она спрятала свои бриллианты и жемчуга в общей сложности на 150 000 золотых рублей под обивку одного из двенадцати стульев гостиного гарнитура работы известного мастера Гамбса.Бросив все, Воробьянинов бросается на поиски стульев, в чем ему, конечно же, небескорыстно, берется помочь молодой авантюрист, «великий комбинатор» Остап Бендер. Найти следы разрозненного гарнитура непросто. Не облегчает положения и то, что перед смертью теща Воробьянинова открыла тайну сокровищ и своему исповеднику, отцу Федору, всю жизнь мечтавшему о собственном свечном заводике в Самаре...
Доп. информация: здесь первая и вторая часть фильма !
Качество: DVDRip
Формат: AVI
Видео кодек: XviD
Аудио кодек:MP3
Видео :MPEG-4 Visual 464x352 25.000 fps 1151 Kbps
Аудио :MP3 48000Hz 128 Kbps 2(сh)

Скриншоты

медиа инфо

Общее
Полное имя : D:\Movies\12 стульев\dvenadcatstulyev2of2.avi
Формат : AVI
Формат/Информация : Audio Video Interleave
Размер файла : 700 Мбайт
Продолжительность : 1 ч. 15 м.
Режим общего битрейта : Переменный
Общий поток : 1294 Кбит/сек
Программа кодирования : VirtualDubMod 1.5.4.1 (build 2178/release)
Библиотека кодирования : VirtualDubMod build 2178/release
Видео
Идентификатор : 0
Формат : MPEG-4 Visual
Профиль формата : Advanced [email protected]
Параметр BVOP формата : 1
Параметр QPel формата : Нет
Параметр GMC формата : Без точки перехода
Параметр матрицы формата : Выборочная
Идентификатор кодека : XVID
Идентификатор кодека/Подсказка : XviD
Продолжительность : 1 ч. 15 м.
Битрейт : 1151 Кбит/сек
Ширина : 464 пикселя
Высота : 352 пикселя
Соотношение сторон : 4:3
Частота кадров : 25,000 кадров/сек
Цветовое пространство : YUV
Субдискретизация насыщенности : 4:2:0
Битовая глубина : 8 бит
Тип развёртки : Прогрессивная
Метод сжатия : С потерями
Бит/(Пиксели*Кадры) : 0.282
Размер потока : 623 Мбайт (89%)
Библиотека кодирования : XviD 1.1.0 Beta2 (UTC 2005-04-04)
Аудио
Идентификатор : 1
Формат : MPEG Audio
Версия формата : Version 1
Профиль формата : Layer 3
Режим : Joint stereo
Расширение режима : MS Stereo
Идентификатор кодека : 55
Идентификатор кодека/Подсказка : MP3
Продолжительность : 1 ч. 15 м.
Вид битрейта : Переменный
Битрейт : 128 Кбит/сек
Каналы : 2 канала
Частота : 48,0 КГц
Метод сжатия : С потерями
Задержка видео : 936 мс.
Размер потока : 70,2 Мбайт (10%)
Выравнивание : Разделение по промежуткам
Продолжительность промежутка : 24 мс. (0,60 видеокадр)
Время предзагрузки промежутка : 1491 мс.
Библиотека кодирования : LAME3.96r
Настройки программы : -m j -V 4 -q 2 -lowpass 17.5 --abr 128
Язык : Russian
Общее
Полное имя : D:\Movies\12 стульев\dvenadcatstulyev1of2.avi
Формат : AVI
Формат/Информация : Audio Video Interleave
Размер файла : 700 Мбайт
Продолжительность : 1 ч. 16 м.
Режим общего битрейта : Переменный
Общий поток : 1271 Кбит/сек
Программа кодирования : VirtualDubMod 1.5.4.1 (build 2178/release)
Библиотека кодирования : VirtualDubMod build 2178/release
Видео
Идентификатор : 0
Формат : MPEG-4 Visual
Профиль формата : Advanced [email protected]
Параметр BVOP формата : 1
Параметр QPel формата : Нет
Параметр GMC формата : Без точки перехода
Параметр матрицы формата : Выборочная
Идентификатор кодека : XVID
Идентификатор кодека/Подсказка : XviD
Продолжительность : 1 ч. 16 м.
Битрейт : 1126 Кбит/сек
Ширина : 464 пикселя
Высота : 352 пикселя
Соотношение сторон : 4:3
Частота кадров : 25,000 кадров/сек
Цветовое пространство : YUV
Субдискретизация насыщенности : 4:2:0
Битовая глубина : 8 бит
Тип развёртки : Прогрессивная
Метод сжатия : С потерями
Бит/(Пиксели*Кадры) : 0.276
Размер потока : 620 Мбайт (89%)
Библиотека кодирования : XviD 1.1.0 Beta2 (UTC 2005-04-04)
Аудио
Идентификатор : 1
Формат : MPEG Audio
Версия формата : Version 1
Профиль формата : Layer 3
Режим : Joint stereo
Расширение режима : MS Stereo
Идентификатор кодека : 55
Идентификатор кодека/Подсказка : MP3
Продолжительность : 1 ч. 16 м.
Вид битрейта : Переменный
Битрейт : 128 Кбит/сек
Каналы : 2 канала
Частота : 48,0 КГц
Метод сжатия : С потерями
Задержка видео : 1 с. 968 мс.
Размер потока : 72,5 Мбайт (10%)
Выравнивание : Разделение по промежуткам
Продолжительность промежутка : 24 мс. (0,60 видеокадр)
Время предзагрузки промежутка : 1470 мс.
Библиотека кодирования : LAME3.96r
Настройки программы : -m j -V 4 -q 2 -lowpass 17.5 --abr 128
Язык : Russian
Общее
Полное имя : D:\Movies\12 стульев\12 стульев.torrent
Размер файла : 14,2 Кбайт


Последний раз редактировалось: antonio (2012-06-28 13:27), всего редактировалось 9 раз(а)

Создавать темы 09-Май-2012 11:25

[Профиль]  [ЛС] 

sirop

Стаж: 5 лет 11 месяцев

Сообщений: 26

antonio ® Вот Большое Спасибо !
Как только треккер заработает сразу начну качать эту комедию!

Создавать темы 09-Май-2012 12:39

[Профиль]  [ЛС] 

antonio ®

Стаж: 5 лет 10 месяцев

Сообщений: 88

Симпатии: 1

sirop, обращайтесь . я могу и 1977 года залить ! если надо пишите

Создавать темы 09-Май-2012 12:48

[Профиль]  [ЛС] 

sirop

Стаж: 5 лет 11 месяцев

Сообщений: 26

antonio ® Здорово было бы !
Если не трудно , то раздайте пожалуйста 1977 (с Анреем Мироновым).
Можно даже в этой раздаче путем добавления файлов :)
С удовольствием скачаю!
Заранее Спасибо!

Создавать темы 09-Май-2012 14:56

[Профиль]  [ЛС] 

antonio ®

Стаж: 5 лет 10 месяцев

Сообщений: 88

Симпатии: 1

sirop, ок залью в течении 2 дней )

Создавать темы 09-Май-2012 16:09

[Профиль]  [ЛС] 

archer88

Стаж: 5 лет 10 месяцев

Сообщений: 15

дайте скорости пжлст.

Создавать темы 15-Июл-2012 08:32

[Профиль]  [ЛС] 

IceMan92

Стаж: 5 лет 11 месяцев

Сообщений: 29

С Мироновый интересней.

Создавать темы 18-Июл-2012 12:43

[Профиль]  [ЛС] 

erha

Стаж: 5 лет 2 месяца

Сообщений: 74

А с Мироновым нет?

Создавать темы 04-Фев-2013 18:42

[Профиль]  [ЛС] 

antonio ®

Стаж: 5 лет 10 месяцев

Сообщений: 88

Симпатии: 1

erha, Есть с мироновым есть.

Создавать темы 10-Апр-2013 13:58

[Профиль]  [ЛС] 

Marti2013

Стаж: 4 года 4 месяца

Сообщений: 45

Симпатии: 1

Охотники за табуретками, раздайте фильм

Создавать темы 05-Сен-2013 17:57

[Профиль]  [ЛС] 
Показать сообщения:    
Ответить на тему

Текущее время: 13-Дек 19:46

Часовой пояс: UTC + 5



Вы не можете начинать темы
Вы не можете отвечать на сообщения
Вы не можете редактировать свои сообщения
Вы не можете удалять свои сообщения
Вы не можете голосовать в опросах
Вы не можете прикреплять файлы к сообщениям
Вы не можете скачивать файлы