Спасибо смоки [2011 г., Комедия, видео прикол, DVDRip]

Ответить на тему
 

jaska-3d ®

Стаж: 5 лет 8 месяцев

Сообщений: 250

Симпатии: 25

Спасибо смоки -Год выпуска: 2011
Страна: США
Жанр: Комедия, видео прикол
Продолжительность: 00:03:06-Описание: Развлекись 100 процентный улёт, смотреть до конца-Качество: DVDRip
Формат: MPEG
Bit rate: 1 656 Kbps
Видео кодек: XviD
Аудио кодек: AC3
Видео: MPEG4 Video (H264) 1280x720 [Video]
Аудио: AAC 44100Hz stereo 1411kbps [Audio]-

Скриншоты









Media Info

General
Format : MPEG-4
Format profile : Base Media / Version 2
Codec ID : mp42
File size : 40.3 MiB
Duration : 3mn 6s
Overall bit rate mode : Variable
Overall bit rate : 1 813 Kbps
Encoded date : UTC 2011-07-25 05:45:33
Tagged date : UTC 2011-07-25 05:45:33
gsst : 0
gstd : 186338
gssd : BADC21222HH1335765168976084
gshh : o-o.preferred.fra02s01.v17.lscache3.c.youtube.com
Video
ID : 1
Format : AVC
Format/Info : Advanced Video Codec
Format profile : [email protected]
Format settings, CABAC : Yes
Format settings, ReFrames : 1 frame
Codec ID : avc1
Codec ID/Info : Advanced Video Coding
Duration : 3mn 6s
Bit rate : 1 656 Kbps
Maximum bit rate : 5 230 Kbps
Width : 1 280 pixels
Height : 720 pixels
Display aspect ratio : 16:9
Frame rate mode : Variable
Frame rate : 23.976 fps
Minimum frame rate : 17.241 fps
Maximum frame rate : 24.390 fps
Color space : YUV
Chroma subsampling : 4:2:0
Bit depth : 8 bits
Scan type : Progressive
Bits/(Pixel*Frame) : 0.075
Stream size : 36.8 MiB (91%)
Tagged date : UTC 2011-07-25 05:45:33
Audio
ID : 2
Format : AAC
Format/Info : Advanced Audio Codec
Format profile : LC
Codec ID : 40
Duration : 3mn 6s
Bit rate mode : Variable
Bit rate : 152 Kbps
Maximum bit rate : 188 Kbps
Channel(s) : 2 channels
Channel positions : Front: L R
Sampling rate : 44.1 KHz
Compression mode : Lossy
Stream size : 3.37 MiB (8%)
Title : IsoMedia File Produced by Google, 5-11-2011
Encoded date : UTC 2011-07-25 05:45:33
Tagged date : UTC 2011-07-25 05:45:33
-


Последний раз редактировалось: jaska-3d (2012-05-10 13:26), всего редактировалось 4 раз(а)

Создавать темы 09-Май-2012 12:16

[Профиль]  [ЛС] 

jaska-3d ®

Стаж: 5 лет 8 месяцев

Сообщений: 250

Симпатии: 25

советую всем посмотреть, прикольный видео ролик !

Создавать темы 09-Май-2012 12:21

[Профиль]  [ЛС] 

jaska-3d ®

Стаж: 5 лет 8 месяцев

Сообщений: 250

Симпатии: 25

модераторы проверять будете ?

Создавать темы 10-Май-2012 13:30

[Профиль]  [ЛС] 

arimanz

Стаж: 5 лет 3 месяца

Сообщений: 58

Не открываеться?

Создавать темы 10-Май-2012 17:18

[Профиль]  [ЛС] 

Wasabik

Стаж: 6 лет 3 месяца

Сообщений: 58

Симпатии: 1

НЕ КАЧАТЬ!!!!! ЛИЧНО МОЕ МНЕНИЕ.

Создавать темы 10-Май-2012 23:52

[Профиль]  [ЛС] 

jaska-3d ®

Стаж: 5 лет 8 месяцев

Сообщений: 250

Симпатии: 25

НЕ КАЧАТЬ!!!!! ЛИЧНО МОЕ МНЕНИЕ.
твоё личное мнение никто не спрашивал,
100 % - Юмор !!!

Создавать темы 11-Май-2012 09:27

[Профиль]  [ЛС] 

sanjar_0009

Стаж: 5 лет 1 месяц

Сообщений: 50

Симпатии: 2

+1

Создавать темы 03-Май-2013 16:32

[Профиль]  [ЛС] 
Показать сообщения:    
Ответить на тему

Текущее время: 19-Авг 08:52

Часовой пояс: UTC + 5



Вы не можете начинать темы
Вы не можете отвечать на сообщения
Вы не можете редактировать свои сообщения
Вы не можете удалять свои сообщения
Вы не можете голосовать в опросах
Вы не можете прикреплять файлы к сообщениям
Вы не можете скачивать файлы