Шкала агрессии / The Aggression Scale (Стивен С. Миллер) [2012 г., боевик, триллер, HDRip] AVO + Original ENG

Ответить на тему
 

Life ®

Стаж: 7 лет 3 месяца

Сообщений: 20

Симпатии: 1

Шкала агрессии / The Aggression Scale Год выпуска: 2012
Страна: США
Жанр: боевик, триллер
Продолжительность: 85 мин. / 01:25:16
Перевод: любительский (Одноголосый закадровый) || Хихикающий Доктор
Режиссер: Стивен С. Миллер
Продюссер: Эбен Костбар, Джозеф МакКелхир, Трэвис Стивенс
Сценарий: Бен Пауэлл
Премьера в мире: 10 марта 2012
В ролях: Рэй Уайз, Дэна Эшбрук, Дерек Мирс, Джейкоб Рейнольдс, Лиза Ротонди, Фаббианн Терез, Бойд Кестнер, Джозеф МакКелхир, Эбен Костбар, Райан Хартвиг
Описание: Босс мафии обнаруживает, что у него украли полмиллиона долларов и отправляет четырех наемных убийц отправить «сообщение» семьям похитителей. Однако в одном из домов гангстеры встречают подростка по имени Оуэн. Оуэн имеет склонность к насилию и умеет создавать смертельные ловушки.
R - Лицам до 17 лет обязательно присутствие взрослого
 
Трейлер: 23.7 МБ, 02 мин 04 сек. http://dir.uz/32825
Качество: HDRip
Формат: AVI
Видео кодек: XviD
Аудио кодек: MP3, AC3
Видео: XviD, 720x304, 23.98fps, 1 835 Kbps
Аудио #1: MP3, 44100Hz, 2ch, 192kbps [RUS]
Аудио #2: AC3, 48000Hz, 6ch, 256kbps [ENG]

MediaInfo

General
Complete name : D:\internet2010\The.Aggression.Scale.1400MB.avi
Format : AVI
Format/Info : Audio Video Interleave
File size : 1.37 GiB
Duration : 1h 25mn
Overall bit rate : 2 300 Kbps
Writing application : VirtualDubMod 1.5.10.2 (build 2540/release)
Writing library : VirtualDubMod build 2540/release
Video #0
ID : 0
Format : MPEG-4 Visual
Format profile : [email protected]
Format settings, BVOP : Yes
Format settings, QPel : No
Format settings, GMC : No warppoints
Format settings, Matrix : Default (H.263)
Muxing mode : Packed bitstream
Codec ID : XVID
Codec ID/Hint : XviD
Duration : 1h 25mn
Bit rate : 1 835 Kbps
Width : 720 pixels
Height : 304 pixels
Display aspect ratio : 2.35:1
Frame rate : 23.976 fps
Resolution : 24 bits
Colorimetry : 4:2:0
Scan type : Progressive
Bits/(Pixel*Frame) : 0.350
Stream size : 1.09 GiB (80%)
Writing library : XviD 1.2.1 (UTC 2008-12-04)
Audio #1
ID : 1
Format : MPEG Audio
Format version : Version 1
Format profile : Layer 3
Codec ID : 55
Codec ID/Hint : MP3
Duration : 1h 25mn
Bit rate mode : Constant
Bit rate : 192 Kbps
Channel(s) : 2 channels
Sampling rate : 44.1 KHz
Resolution : 16 bits
Video delay : 123ms
Stream size : 117 MiB (8%)
Alignment : Split accross interleaves
Interleave, duration : 26 ms (0.63 video frame)
Interleave, preload duration : 512 ms
Audio #2
ID : 2
Format : AC-3
Format/Info : Audio Coding 3
Codec ID : 2000
Duration : 1h 25mn
Bit rate mode : Constant
Bit rate : 256 Kbps
Channel(s) : 6 channels
Channel positions : Front: L C R, Surround: L R, LFE
Sampling rate : 48.0 KHz
Stream size : 156 MiB (11%)
Alignment : Split accross interleaves
Interleave, duration : 42 ms (1.00 video frame)
Interleave, preload duration : 500 ms

Скриншоты








Последний раз редактировалось: Life (2012-05-19 18:26), всего редактировалось 12 раз(а)

Создавать темы 09-Май-2012 12:20

[Профиль]  [ЛС] 

McFLY

Стаж: 5 лет 8 месяцев

Сообщений: 658

Симпатии: 22

Странно, малыш на постере , чем-то уж очень на юного Декстера похож!!!!!!!!!!

Создавать темы 09-Май-2012 12:24

[Профиль]  [ЛС] 

aliko

Стаж: 5 лет 6 месяцев

Сообщений: 4

кто будет раздавать

Создавать темы 12-Май-2012 11:24

[Профиль]  [ЛС] 

aliko

Стаж: 5 лет 6 месяцев

Сообщений: 4

кто будет раздовать

Создавать темы 13-Май-2012 10:23

[Профиль]  [ЛС] 
Показать сообщения:    
Ответить на тему

Текущее время: 20-Ноя 12:36

Часовой пояс: UTC + 5



Вы не можете начинать темы
Вы не можете отвечать на сообщения
Вы не можете редактировать свои сообщения
Вы не можете удалять свои сообщения
Вы не можете голосовать в опросах
Вы не можете прикреплять файлы к сообщениям
Вы не можете скачивать файлы