Очи дракона / Dragon Eyes (Джон Хайамс) [2012 г., боевик, драма, криминал, HDRip]

Ответить на тему
 

mc_rnc ®

Стаж: 5 лет 3 месяца

Сообщений: 5

Очи дракона / Dragon Eyes
Год выпуска: 2012
Страна: США
Жанр: боевик, драма, криминал
Продолжительность: 88 мин. / 01:28
Перевод: профессиональный (одноголосый)
Режиссер: Джон Хайамс
Продюссер: Алан Амиел, Стив Ричардс, Джоэл Силвер
Сценарий: Тим Тори
Бюджет: $3 000 000
Премьера в мире: 9 апреля 2012
В ролях: Жан-Клод Ван Дамм, Питер Уэллер, Кунг Ле, Кристофер Ван Варенберг, Луис Да Силва мл., Кристал Мантекон, Моника Акоста, Эрик Браун, Эдди Роус, Дэнни Космо Хиггинботтом
Описание: Новый Орлеан, наши дни. Как и любой другой процветающий мегаполис мира, — это город контрастов, где есть и блеск, и грязь, встречаются роскошные дворцы и нищенские трущобы, где есть место великим возможностям и невероятным шансам самореализации, а вместе с тем — рискованным случайностям и проблематичным ситуациям. Однако, существуют куда более острые проблемы в виде деятельности организованной преступности и гангстерских группировок, которые интенсивно наращивают свою массу и влияние, повсюду распространяя оружие и наркотики. Страшнее же этого может быть только коррумпированность представителей закона и продажность органов власти. Но даже там, где всё куплено и схвачено, найдутся смельчаки, у которых есть в планах сломать систему и выкорчевать всю гниль устоявшегося порядка вещей. И вот однажды, устав от творящегося беззакония и беспорядка, обычный человек, но бдительный гражданин, бросает вызов «элите» нечистых на руку полицейских и погрязших в коррупции служителей закона, матёрым гангстерам и всесильным заправилам криминального мира. Как оказалось, вступить в неравный бой — лишь капля в море по сравнению с тем, чему суждено случиться дальше...
R - Лицам до 17 лет обязательно присутствие взрослого
 
Качество: HDRip
Формат: FLV
Видео кодек: AVC
Аудио кодек: MP3
Видео: 480x288 (1,667:1), 25 fps, 400 kbps
Аудио: 22.05 KHz, 1 ch (mono), 64.0 kbps

MI

Видео
Формат : AVC
Формат/Информация : Advanced Video Codec
Профиль формата : [email protected]
Параметр CABAC формата : Да
Параметр ReFrames формата : 4 кадра
Идентификатор кодека : 7
Продолжительность : 1 ч. 27 м.
Битрейт : 400 Кбит/сек
Ширина : 480 пикселей
Высота : 288 пикселей
Соотношение сторон : 1,667
Режим частоты кадров : Постоянный
Частота кадров : 25,000 кадров/сек
Цветовое пространство : YUV
Субдискретизация насыщенности : 4:2:0
Битовая глубина : 8 бит
Тип развёртки : Прогрессивная
Бит/(Пиксели*Кадры) : 0.116
Размер потока : 251 Мбайт (84%)
Библиотека кодирования : x264 core 118 r2085 8a62835
Аудио
Формат : MPEG Audio
Версия формата : Version 2
Профиль формата : Layer 3
Идентификатор кодека : 2
Идентификатор кодека/Подсказка : MP3
Продолжительность : 1 ч. 27 м.
Вид битрейта : Постоянный
Битрейт : 64,0 Кбит/сек
Каналы : 1 канал
Частота : 22,05 КГц
Метод сжатия : С потерями
Задержка видео : 40 мс.
Размер потока : 40,2 Мбайт (14%)
Библиотека кодирования : LAME3.98.4

Скриншоты

Создавать темы 10-Май-2012 22:19

[Профиль]  [ЛС] 

ximik

Стаж: 6 лет 7 месяцев

Сообщений: 29

Симпатии: 30

Почему размер 298 mb...
хотел помочь с раздачей но у моего размер 1,47 gb..

Создавать темы 11-Май-2012 11:13

[Профиль]  [ЛС] 

sardor5047776

Стаж: 5 лет 3 месяца

Сообщений: 4

vsem privet

Создавать темы 11-Май-2012 11:17

[Профиль]  [ЛС] 

vvz

Стаж: 6 лет 3 месяца

Сообщений: 10

Почему размер 298 mb...
хотел помочь с раздачей но у моего размер 1,47 gb..
А выложи в отдельный топик свой вариант, если там характеристики видео по-круче.

Создавать темы 11-Май-2012 15:14

[Профиль]  [ЛС] 

Pendalf

Стаж: 6 лет 2 месяца

Сообщений: 416

Симпатии: 34

vvz, http://www.tas-ix.net/viewtopic.php?t=45428

Создавать темы 11-Май-2012 15:17

[Профиль]  [ЛС] 

Mr.majid

Стаж: 5 лет 3 месяца

Сообщений: 1

всем респект

Создавать темы 12-Май-2012 11:25

[Профиль]  [ЛС] 

mc_rnc ®

Стаж: 5 лет 3 месяца

Сообщений: 5

раздача на высоком.. наслаждайте)))

Создавать темы 12-Май-2012 22:22

[Профиль]  [ЛС] 
Показать сообщения:    
Ответить на тему

Текущее время: 20-Авг 14:58

Часовой пояс: UTC + 5



Вы не можете начинать темы
Вы не можете отвечать на сообщения
Вы не можете редактировать свои сообщения
Вы не можете удалять свои сообщения
Вы не можете голосовать в опросах
Вы не можете прикреплять файлы к сообщениям
Вы не можете скачивать файлы