WWE Monday Night Raw 2012/05/07 [2012 г., Рестлинг, HDTVRip]

Ответить на тему
 

Спартанец ®

Стаж: 5 лет 7 месяцев

Сообщений: 361

WWE Monday Night Raw 2012/05/07
Год выпуска: 2012
Вид спорта: Рестлинг
Участники: Звезды WWE
Продолжительность: 01.35.15
Комментарий: профессиональный (многоголосый, закадровый)
Язык комментариев: Русский
Описание: Еженедельный выпуск RAW. Выпуск от 7-го мая 2012 года
Качество: HDTVRip
Формат: Mр4
Видео кодек: x264 \ AVC
Аудио кодек: MPEG Audio
Видео: MPEG4 Video (H264), 704x400, 29.97fps, 1 441 Kbps
Аудио: MPEG Audio Layer 3, 48000Hz, stereo, 128 Kbps

MediaInfo

General
Format : MPEG-4
Format profile : Base Media
Codec ID : isom
File size : 1.05 GiB
Duration : 1h 35mn
Overall bit rate : 1 572 Kbps
Encoded date : UTC 2012-05-07 15:38:21
Tagged date : UTC 2012-05-07 15:38:21
Writing application : Yamb 2.1.0.0 [http://yamb.unite-video.com]
Video
ID : 1
Format : AVC
Format/Info : Advanced Video Codec
Format profile : [email protected]
Format settings, CABAC : Yes
Format settings, ReFrames : 4 frames
Codec ID : avc1
Codec ID/Info : Advanced Video Coding
Duration : 1h 35mn
Bit rate : 1 441 Kbps
Maximum bit rate : 2 522 Kbps
Width : 704 pixels
Height : 400 pixels
Display aspect ratio : 16:9
Frame rate mode : Constant
Frame rate : 29.970 fps
Color space : YUV
Chroma subsampling : 4:2:0
Bit depth : 8 bits
Scan type : Progressive
Bits/(Pixel*Frame) : 0.171
Stream size : 982 MiB (92%)
Writing library : x264 core 122 r2184 5c85e0a
Encoding settings : cabac=1 / ref=5 / deblock=1:0:0 / analyse=0x3:0x113 / me=umh / subme=9 / psy=1 / psy_rd=1.00:0.00 / mixed_ref=1 / me_range=16 / chroma_me=1 / trellis=1 / 8x8dct=1 / cqm=0 / deadzone=21,11 / fast_pskip=1 / chroma_qp_offset=-2 / threads=12 / sliced_threads=0 / nr=0 / decimate=1 / interlaced=0 / bluray_compat=0 / constrained_intra=0 / bframes=3 / b_pyramid=1 / b_adapt=2 / b_bias=0 / direct=3 / weightb=1 / open_gop=0 / weightp=2 / keyint=300 / keyint_min=30 / scenecut=40 / intra_refresh=0 / rc_lookahead=40 / rc=crf / mbtree=1 / crf=19.0 / qcomp=0.60 / qpmin=0 / qpmax=69 / qpstep=4 / vbv_maxrate=1500 / vbv_bufsize=1450 / crf_max=0.0 / nal_hrd=none / ip_ratio=1.40 / aq=1:1.00
Encoded date : UTC 2011-09-08 11:43:25
Tagged date : UTC 2012-05-07 15:39:58
Audio
ID : 2
Format : MPEG Audio
Format version : Version 1
Format profile : Layer 3
Mode : Joint stereo
Mode extension : MS Stereo
Codec ID : 6B
Duration : 1h 35mn
Bit rate mode : Constant
Bit rate : 128 Kbps
Maximum bit rate : 132 Kbps
Channel(s) : 2 channels
Sampling rate : 48.0 KHz
Compression mode : Lossy
Stream size : 87.2 MiB (8%)
Encoded date : UTC 2012-05-07 15:39:46
Tagged date : UTC 2012-05-07 15:39:58

Kaрд

Big Show vs. Cody Rhodes
Kofi Kingston vs. Dolph Ziggler
Layla & Kelly Kelly vs. Maxine & Natalya
Randy Orton & Sheamus vs. Chris Jericho & Alberto Del Rio
The Miz vs. Brodus Clay
CM Punk vs. Lord Tensai & Daniel Bryan

Скриншоты

Создавать темы 10-Май-2012 22:39

[Профиль]  [ЛС] 

rey mysterio

Стаж: 5 лет 8 месяцев

Сообщений: 164

Спс )) +1

Создавать темы 10-Май-2012 23:10

[Профиль]  [ЛС] 

rey mysterio

Стаж: 5 лет 8 месяцев

Сообщений: 164

не ужели Бродусу Клею посложнее соперников начали давать)

Создавать темы 10-Май-2012 23:11

[Профиль]  [ЛС] 

rey mysterio

Стаж: 5 лет 8 месяцев

Сообщений: 164

Как Альберту(Лорд Тенсай)

Создавать темы 10-Май-2012 23:12

[Профиль]  [ЛС] 

Спартанец ®

Стаж: 5 лет 7 месяцев

Сообщений: 361

Бродуса бы против Кейна или Биг Шоу бы поставить ))) вот там будет мясорубка )

Создавать темы 11-Май-2012 10:29

[Профиль]  [ЛС] 

rey mysterio

Стаж: 5 лет 8 месяцев

Сообщений: 164

э бичарашку Бродуса Кейн ваще убьёт

Создавать темы 11-Май-2012 22:22

[Профиль]  [ЛС] 

ygapHuK

Стаж: 5 лет 7 месяцев

Сообщений: 153

надо как-нибудь скачать да посмотреть,ни разу не видел WWE,главное не подсесть как на UFC)

Создавать темы 12-Май-2012 21:21

[Профиль]  [ЛС] 

aaaaa

Стаж: 5 лет 7 месяцев

Сообщений: 64

надо как-нибудь скачать да посмотреть,ни разу не видел WWE,главное не подсесть как на UFC)
поверь wwe зрелищней чем ufc)

Создавать темы 12-Май-2012 21:27

[Профиль]  [ЛС] 

Спартанец ®

Стаж: 5 лет 7 месяцев

Сообщений: 361

надо как-нибудь скачать да посмотреть,ни разу не видел WWE,главное не подсесть как на UFC)
надо как-нибудь скачать да посмотреть,ни разу не видел WWE,главное не подсесть как на UFC)
поверь wwe зрелищней чем ufc)
Ну как знать )) тут подмена понятий. Даби Даби И - это шоу. Ну а ЮФСи уже реалия :)

Создавать темы 12-Май-2012 21:33

[Профиль]  [ЛС] 
Показать сообщения:    
Ответить на тему

Текущее время: 20-Сен 21:32

Часовой пояс: UTC + 5



Вы не можете начинать темы
Вы не можете отвечать на сообщения
Вы не можете редактировать свои сообщения
Вы не можете удалять свои сообщения
Вы не можете голосовать в опросах
Вы не можете прикреплять файлы к сообщениям
Вы не можете скачивать файлы