WWE Bragging Rights 2010 [2010 г., Рестлинг, SATRip]

Страницы :  1, 2  След.

Ответить на тему
 

Спартанец ®

Стаж: 5 лет 7 месяцев

Сообщений: 361

WWE Bragging Rights 2010
Год выпуска: 2010
Вид спорта: Рестлинг
Участники: Звезды WWE
Продолжительность: 02:37:19
Комментарий: профессиональный
(многоголосый, закадровый)
Описание: Противостояние двух брендов, SmackDown и Raw
Качество: SATRip
Формат: AVI
Видео кодек: XviD
Аудио кодек: MPEG Audio
Видео: XviD, 640x368, 25fps, 1 023 Kbps
Аудио: MPEG Audio Layer 3, 44100Hz, stereo 128kbps

Кард

Interpromotional Non-Title Match
Daniel Bryan vs. Dolph Ziggler
WWE Tag Team Championship
John Cena and David Otunga vs. "Dashing" Cody Rhodes and Drew McIntyre
Goldust vs. Ted DiBiase
Divas Championship
Natalya vs. Layla
Buried Alive Match For The World Heavyweight Championship
The Undertaker vs. Kane
7-on-7 Elimination Tag Team Match
Team RAW vs. Team SmackDown
WWE Championship
Randy Orton vs. Wade Barrett

Скриншоты

MediaInfo

Part1.avi

General
Format : AVI
Format/Info : Audio Video Interleave
File size : 823 MiB
Duration : 1h 38mn
Overall bit rate : 1 164 Kbps
Video
ID : 0
Format : MPEG-4 Visual
Format profile : Advanced [email protected]
Format settings, BVOP : 2
Format settings, QPel : No
Format settings, GMC : No warppoints
Format settings, Matrix : Default (H.263)
Codec ID : XVID
Codec ID/Hint : XviD
Duration : 1h 38mn
Bit rate : 1 023 Kbps
Width : 640 pixels
Height : 368 pixels
Display aspect ratio : 16:9
Frame rate : 25.000 fps
Color space : YUV
Chroma subsampling : 4:2:0
Bit depth : 8 bits
Scan type : Progressive
Compression mode : Lossy
Bits/(Pixel*Frame) : 0.174
Stream size : 724 MiB (88%)
Writing library : XviD 1.1.2 (UTC 2006-11-01)
Audio
ID : 1
Format : MPEG Audio
Format version : Version 1
Format profile : Layer 3
Mode : Joint stereo
Mode extension : MS Stereo
Codec ID : 55
Codec ID/Hint : MP3
Duration : 1h 38mn
Bit rate mode : Constant
Bit rate : 128 Kbps
Channel(s) : 2 channels
Sampling rate : 44.1 KHz
Compression mode : Lossy
Stream size : 90.5 MiB (11%)
Alignment : Aligned on interleaves
Interleave, duration : 26 ms (0.65 video frame)
Interleave, preload duration : 809 ms

Part2.avi

General
Format : AVI
Format/Info : Audio Video Interleave
File size : 545 MiB
Duration : 1h 5mn
Overall bit rate : 1 164 Kbps
Writing library : MPlayer
Video
ID : 0
Format : MPEG-4 Visual
Format profile : Advanced [email protected]
Format settings, BVOP : 2
Format settings, QPel : No
Format settings, GMC : No warppoints
Format settings, Matrix : Default (H.263)
Codec ID : XVID
Codec ID/Hint : XviD
Duration : 1h 5mn
Bit rate : 1 024 Kbps
Width : 640 pixels
Height : 368 pixels
Display aspect ratio : 16:9
Frame rate : 25.000 fps
Color space : YUV
Chroma subsampling : 4:2:0
Bit depth : 8 bits
Scan type : Progressive
Compression mode : Lossy
Bits/(Pixel*Frame) : 0.174
Stream size : 480 MiB (88%)
Writing library : XviD 1.1.2 (UTC 2006-11-01)
Audio
ID : 1
Format : MPEG Audio
Format version : Version 1
Format profile : Layer 3
Mode : Joint stereo
Mode extension : MS Stereo
Codec ID : 55
Codec ID/Hint : MP3
Duration : 1h 5mn
Bit rate mode : Constant
Bit rate : 128 Kbps
Channel(s) : 2 channels
Sampling rate : 44.1 KHz
Compression mode : Lossy
Delay relative to video : 40ms
Stream size : 60.0 MiB (11%)
Alignment : Aligned on interleaves
Interleave, duration : 26 ms (0.65 video frame)
Interleave, preload duration : 809 ms

Создавать темы 12-Май-2012 21:29

[Профиль]  [ЛС] 

TimaAnarki

Стаж: 5 лет 8 месяцев

Сообщений: 45

Симпатии: 1

Спартанец, ты походу помешан на рестлинге...
//_-

Создавать темы 12-Май-2012 23:57

[Профиль]  [ЛС] 

rey mysterio

Стаж: 5 лет 8 месяцев

Сообщений: 164

во спс первый заказ выполнен))

Создавать темы 12-Май-2012 23:58

[Профиль]  [ЛС] 

rey mysterio

Стаж: 5 лет 8 месяцев

Сообщений: 164

не один он )))TimaAnarki,

Создавать темы 12-Май-2012 23:59

[Профиль]  [ЛС] 

Спартанец ®

Стаж: 5 лет 7 месяцев

Сообщений: 361

Спартанец, ты походу помешан на рестлинге...
//_-
:)

Создавать темы 13-Май-2012 00:08

[Профиль]  [ЛС] 

Kroys

Стаж: 5 лет 11 месяцев

Сообщений: 187

Симпатии: 1

ухуху, а разве где КЕЙН , Похронил Андертакера это было в 2010 году??

Создавать темы 13-Май-2012 00:13

[Профиль]  [ЛС] 

Спартанец ®

Стаж: 5 лет 7 месяцев

Сообщений: 361

Да, в 2010-ом :))

Создавать темы 13-Май-2012 00:15

[Профиль]  [ЛС] 

TimaAnarki

Стаж: 5 лет 8 месяцев

Сообщений: 45

Симпатии: 1

Нет, конечно я тоже очень люблю рестлинг (больше TNA), не спорю, но все так качать и раздавать... Наверное человек только и делает, что смотрит рестлинг. Кстати, буду очень благодарен если зальешь последний iMPACT, как раз узнаешь, что там да как.

Создавать темы 13-Май-2012 00:23

[Профиль]  [ЛС] 

Спартанец ®

Стаж: 5 лет 7 месяцев

Сообщений: 361

Импакт не наблюдаю. Но из ТНА есть Локдаун. Если что, то как раздам эти релизы, залью ) Я только рестлинг и смотрю. Пока Реальные пацаны не скачаю ))))

Создавать темы 13-Май-2012 00:27

[Профиль]  [ЛС] 

nikita

Стаж: 6 лет 11 месяцев

Сообщений: 82

Симпатии: 4

Спартанец.красава выкладывай больше,я тоже любитель рестлинга.

Создавать темы 13-Май-2012 17:04

[Профиль]  [ЛС] 

Спартанец ®

Стаж: 5 лет 7 месяцев

Сообщений: 361

Спартанец.красава выкладывай больше,я тоже любитель рестлинга.
Cтараюсь ))

Создавать темы 13-Май-2012 18:55

[Профиль]  [ЛС] 

rey mysterio

Стаж: 5 лет 8 месяцев

Сообщений: 164

Чо за издевательство 4-5кб в секунду , 5 % осталось дайте нормальную скорость

Создавать темы 15-Май-2012 23:10

[Профиль]  [ЛС] 

rey mysterio

Стаж: 5 лет 8 месяцев

Сообщений: 164

Э Нексус казлы вмешались бой( Гробовщика и Большой Красной Машины ) ,если бы не они так бы Гробовщик бы выиграл

Создавать темы 16-Май-2012 01:05

[Профиль]  [ЛС] 

Спартанец ®

Стаж: 5 лет 7 месяцев

Сообщений: 361

Шакалы они )) Неудачники сбившиеся в стаю. Сами по себе, ну кроме Баррета - нули. Хотя и Уейд так себе.

Создавать темы 17-Май-2012 19:15

[Профиль]  [ЛС] 

NodirAgenT

Стаж: 6 лет 5 месяцев

Сообщений: 204

блин скорости дайте

_________________
Подпись отключена за нарушение правил форума

Создавать темы 28-Май-2012 21:38

[Профиль]  [ЛС] 
Показать сообщения:    
Ответить на тему

Текущее время: 24-Сен 20:59

Часовой пояс: UTC + 5



Вы не можете начинать темы
Вы не можете отвечать на сообщения
Вы не можете редактировать свои сообщения
Вы не можете удалять свои сообщения
Вы не можете голосовать в опросах
Вы не можете прикреплять файлы к сообщениям
Вы не можете скачивать файлы