WWE Friday Night Smackdown 2012/05/11 [2012 г., Рестлинг, HDTV]

Ответить на тему
 

Спартанец ®

Стаж: 5 лет 8 месяцев

Сообщений: 361

WWE Friday Night Smackdown 2012/05/11
Год выпуска: 2012
Вид спорта: Рестлинг
Участники: Звезды WWE
Продолжительность: 01.21.57
Комментарий: профессиональный (многоголосый, закадровый)
Язык комментариев: Русский
Описание: Один из пятничных вечеров в Smackdown. Выпуск от 11-го мая 2012 года
Качество: HDTV
Формат: Mр4
Видео кодек: x264/AVC
Аудио кодек: Dolby AC3
Видео: MPEG4 Video (H264), 704x400, 25fps, 1 500 Kbps
Аудио: Dolby AC3, Stereo, 48000Hz, 192kbps

Скриншоты

Кард

Sheamus & Randy Orton vs. Chris Jericho & Alberto Del Rio
AJ vs. Kaitlyn
Daniel Bryan vs. Big Show
Ryback vs. Heath Slater
Antonio Cesaro vs. Alex Riley
Randy Orton vs. Alberto Del Rio
R Truth vs. Jack Swagger
Darren Young & Titus O'Neal vs. Santino Marella & Zack Ryder

MediaInfo

General
Format : MPEG-4
Format profile : Base Media
Codec ID : isom
File size : 962 MiB
Duration : 1h 21mn
Overall bit rate mode : Constant
Overall bit rate : 1 642 Kbps
Encoded date : UTC 2012-05-11 11:28:24
Tagged date : UTC 2012-05-11 11:28:24
Writing application : Yamb 2.1.0.0 [http://yamb.unite-video.com]
Video
ID : 2
Format : AVC
Format/Info : Advanced Video Codec
Format profile : [email protected]
Format settings, CABAC : Yes
Format settings, ReFrames : 3 frames
Codec ID : avc1
Codec ID/Info : Advanced Video Coding
Duration : 1h 21mn
Bit rate mode : Constant
Bit rate : 1 500 Kbps / 1 500 Kbps
Maximum bit rate : 2 956 Kbps
Width : 704 pixels
Height : 400 pixels
Display aspect ratio : 16:9
Frame rate mode : Constant
Frame rate : 25.000 fps
Standard : NTSC
Color space : YUV
Chroma subsampling : 4:2:0
Bit depth : 8 bits
Scan type : Progressive
Bits/(Pixel*Frame) : 0.213
Stream size : 848 MiB (88%)
Writing library : x264 core 114
Encoding settings : cabac=1 / ref=3 / deblock=1:0:0 / analyse=0x3:0x113 / me=hex / subme=7 / psy=1 / psy_rd=1.00:0.00 / mixed_ref=1 / me_range=16 / chroma_me=1 / trellis=1 / 8x8dct=1 / cqm=2 / deadzone=21,11 / fast_pskip=1 / chroma_qp_offset=-2 / threads=6 / sliced_threads=0 / slices=1 / nr=0 / decimate=1 / interlaced=0 / constrained_intra=0 / bframes=3 / b_pyramid=0 / b_adapt=1 / b_bias=0 / direct=1 / weightb=1 / open_gop=0 / weightp=2 / keyint=250 / keyint_min=25 / scenecut=40 / intra_refresh=0 / rc_lookahead=40 / rc=cbr / mbtree=1 / bitrate=1500 / ratetol=1.0 / qcomp=0.60 / qpmin=3 / qpmax=69 / qpstep=4 / vbv_maxrate=1500 / vbv_bufsize=1490 / nal_hrd=cbr / ip_ratio=1.40 / aq=1:1.00
Tagged date : UTC 2012-05-11 11:29:50
Color primaries : BT.470-6 System B, BT.470-6 System G, BT.601-6 625, BT.1358 625, BT.1700 625 PAL, BT.1700 625 SECAM
Transfer characteristics : BT.470-6 System B, BT.470-6 System G
Matrix coefficients : BT.470-6 System B, BT.470-6 System G, BT.601-6 625, BT.1358 625, BT.1700 625 PAL, BT.1700 625 SECAM, IEC 61966-2-4 601
Audio
ID : 3
Format : AC-3
Format/Info : Audio Coding 3
Mode extension : CM (complete main)
Codec ID : ac-3
Duration : 1h 21mn
Bit rate mode : Constant
Bit rate : 192 Kbps
Channel(s) : 2 channels
Channel positions : Front: L R
Sampling rate : 48.0 KHz
Bit depth : 16 bits
Compression mode : Lossy
Stream size : 113 MiB (12%)
Encoded date : UTC 2012-05-11 11:29:34
Tagged date : UTC 2012-05-11 11:29:50


Последний раз редактировалось: Спартанец (2012-05-20 09:43), всего редактировалось 1 раз

Создавать темы 15-Май-2012 21:11

[Профиль]  [ЛС] 

ygapHuK

Стаж: 5 лет 8 месяцев

Сообщений: 153

Ух ,тут даже девушки выступают)))

Создавать темы 15-Май-2012 21:38

[Профиль]  [ЛС] 

Спартанец ®

Стаж: 5 лет 8 месяцев

Сообщений: 361

Еще какие )))

Создавать темы 15-Май-2012 23:25

[Профиль]  [ЛС] 

rey mysterio

Стаж: 5 лет 9 месяцев

Сообщений: 164

СПС )) +1

Создавать темы 15-Май-2012 23:48

[Профиль]  [ЛС] 

AzizRES

Стаж: 7 лет 1 месяц

Сообщений: 10

Спартанец, dayte skorost please

Создавать темы 16-Май-2012 01:56

[Профиль]  [ЛС] 

rey mysterio

Стаж: 5 лет 9 месяцев

Сообщений: 164

WWE Monday Night Raw 2012/05/14 выложишь,Спартанец?

Создавать темы 17-Май-2012 00:54

[Профиль]  [ЛС] 

Спартанец ®

Стаж: 5 лет 8 месяцев

Сообщений: 361

Ближе к вечеру закину )

Создавать темы 17-Май-2012 19:13

[Профиль]  [ЛС] 
Показать сообщения:    
Ответить на тему

Текущее время: 21-Окт 00:53

Часовой пояс: UTC + 5



Вы не можете начинать темы
Вы не можете отвечать на сообщения
Вы не можете редактировать свои сообщения
Вы не можете удалять свои сообщения
Вы не можете голосовать в опросах
Вы не можете прикреплять файлы к сообщениям
Вы не можете скачивать файлы