Контрабанда / Contraband (Бальтасар Кормакур) [2012 г., Боевик, Триллер, Драма, Криминал, BDRip (720p)]

Ответить на тему
 

Judas Desperados ®

Стаж: 5 лет 9 месяцев

Сообщений: 185

Симпатии: 19

Контрабанда / Contraband«Большой куш. Крутая команда. Смертельный риск.» -Год выпуска: 2012
Страна: США, Франция, Великобритания
Жанр: Боевик, Триллер, Драма, Криминал
Продолжительность: 01:49:38
Перевод: профессиональный (полное дублирование) [Чистый звук]-Режиссер: Бальтасар Кормакур
Продюссер: Тим Беван, Эрик Феллнер, Бальтасар Кормакур, Стивен Левинсон, Марк Уолберг
Сценарий: Аарон Гузиковский, Арнальдур Ингридасон, Оускар Йоунассон
Оператор: Бэрри Экройд
Композитор: Клинтон Шотер-Бюджет: $25 000 000
Кассовые сборы: $91 181 985
Премьера в мире: 12 января 2012
Релиз на DVD и Blu-ray: 31 мая 2012-В ролях / Дублировали:
Марк Уолберг / Сергей Быстрицкий
Кейт Бекинсейл / Рамиля Искандер
Бен Фостер / Александр Гаврилин
Джованни Рибизи / Дмитрий Филимонов
Калеб Лэндри Джонс / Илья Хвостиков
Дж.К. Симмонс / Александр Новиков
Лаки Джонсон / Денис Беспалый
Диего Луна / Пётр Иващенко-Описание: Мир контрабандистов — это большие ставки и огромный риск. Cтоит оступиться лишь раз, и тебя ждет смерть. В этом мире Крис был лучшим, его называли Гудини, но он вышел из игры, женился и начал новую жизнь…- R - лицам до 17 лет обязательно присутствие взрослого
 
-Качество: BDRip 720p
Формат: MKV
Видео кодек: MPEG4 AVC
Аудио кодек: AC3 и DTS
Видео: 7022 Кбит/сек, 1280x544, [email protected]
Аудио #1: Русский (Полное дублирование), АС3, 448 Кбит/сек, 6 каналов, 48,0 КГц
Аудио #2: Английский (Оригинальная дорожка) DTS, 1510 Кбит/сек, 48,0 КГц
Субтитры: Английские-

Производство студий

Производство:
1. Blueeyes Productions
2. Closest to the Hole Productions
3. Farraday Films
4. Leverage Entertainment
5. Leverage Management
6. Relativity Media
7. Studio Canal
8. Universal Pictures
9. Working Title Films

MediaInfo

Формат                                   : Matroska
Версия формата                           : Version 2
Размер файла                             : 6,88 Гбайт
Продолжительность                        : 1 ч. 49 м.
Общий поток                              : 8978 Кбит/сек
Название фильма                          : Kontrabanda.2012.D.BDRip.720p.ELEKTRI4KA
Дата кодирования                         : UTC 2012-04-14 16:22:37
Программа кодирования                    : mkvmerge v5.3.0 ('I could have danced') built on Feb  9 2012 10:38:07
Библиотека кодирования                   : libebml v1.2.3 + libmatroska v1.3.0
Видео
Идентификатор                            : 1
Формат                                   : AVC
Формат/Информация                        : Advanced Video Codec
Профиль формата                          : [email protected]
Параметр CABAC формата                   : Да
Параметр ReFrames формата                : 12 кадров
Идентификатор кодека                     : V_MPEG4/ISO/AVC
Продолжительность                        : 1 ч. 49 м.
Битрейт                                  : 7022 Кбит/сек
Ширина                                   : 1280 пикселей
Высота                                   : 544 пикселя
Соотношение сторон                       : 2,35:1
Частота кадров                           : 23,976 кадра/сек
Цветовое пространство                    : YUV
Субдискретизация насыщенности            : 4:2:0
Битовая глубина                          : 8 бит
Тип развёртки                            : Прогрессивная
Бит/(Пиксели*Кадры)                      : 0.421
Размер потока                            : 5,24 Гбайт (76%)
Заголовок                                : Kontrabanda.2012.D.BDRip.720p.ELEKTRI4KA
Библиотека кодирования                   : x264 core 120 r2146 bcd41db
Настройки программы                      : cabac=1 / ref=12 / deblock=1:-3:-3 / analyse=0x3:0x113 / me=umh / subme=10 / psy=1 / psy_rd=1.10:0.15 / mixed_ref=1 / me_range=32 / chroma_me=1 / trellis=2 / 8x8dct=1 / cqm=0 / deadzone=21,11 / fast_pskip=0 / chroma_qp_offset=-2 / threads=12 / sliced_threads=0 / nr=0 / decimate=1 / interlaced=0 / bluray_compat=0 / constrained_intra=0 / bframes=6 / b_pyramid=2 / b_adapt=2 / b_bias=0 / direct=3 / weightb=1 / open_gop=0 / weightp=2 / keyint=250 / keyint_min=23 / scenecut=40 / intra_refresh=0 / rc_lookahead=60 / rc=2pass / mbtree=0 / bitrate=7022 / ratetol=1.0 / qcomp=0.60 / qpmin=0 / qpmax=69 / qpstep=4 / cplxblur=20.0 / qblur=0.5 / vbv_maxrate=40000 / vbv_bufsize=30000 / nal_hrd=none / ip_ratio=1.40 / pb_ratio=1.30 / aq=1:0.80
Язык                                     : English
Default                                  : Да
Forced                                   : Нет
Аудио #1
Идентификатор                            : 2
Формат                                   : AC-3
Формат/Информация                        : Audio Coding 3
Расширение режима                        : CM (complete main)
Идентификатор кодека                     : A_AC3
Продолжительность                        : 1 ч. 49 м.
Вид битрейта                             : Постоянный
Битрейт                                  : 448 Кбит/сек
Каналы                                   : 6 каналов
Расположение каналов                     : Front: L C R, Side: L R, LFE
Частота                                  : 48,0 КГц
Битовая глубина                          : 16 бит
Метод сжатия                             : С потерями
Размер потока                            : 351 Мбайт (5%)
Язык                                     : Russian
Default                                  : Нет
Forced                                   : Нет
Аудио #2
Идентификатор                            : 3
Формат                                   : DTS
Формат/Информация                        : Digital Theater Systems
Идентификатор кодека                     : A_DTS
Продолжительность                        : 1 ч. 49 м.
Вид битрейта                             : Постоянный
Битрейт                                  : 1510 Кбит/сек
Каналы                                   : 6 каналов
Расположение каналов                     : Front: L C R, Side: L R, LFE
Частота                                  : 48,0 КГц
Битовая глубина                          : 24 бит
Метод сжатия                             : С потерями
Размер потока                            : 1,16 Гбайт (17%)
Язык                                     : English
Default                                  : Нет
Forced                                   : Нет
Текст
Идентификатор                            : 4
Формат                                   : UTF-8
Идентификатор кодека                     : S_TEXT/UTF8
Идентификатор кодека/Информация          : UTF-8 Plain Text
Язык                                     : English
Default                                  : Нет
Forced                                   : Нет
-

Скриншоты





Создавать темы 16-Май-2012 21:11

[Профиль]  [ЛС] 
Показать сообщения:    
Ответить на тему

Текущее время: 18-Ноя 17:20

Часовой пояс: UTC + 5



Вы не можете начинать темы
Вы не можете отвечать на сообщения
Вы не можете редактировать свои сообщения
Вы не можете удалять свои сообщения
Вы не можете голосовать в опросах
Вы не можете прикреплять файлы к сообщениям
Вы не можете скачивать файлы