WWE Monday Night Raw 2012/05/14 [2012 г., Рестлинг, HDTV]

Ответить на тему
 

Спартанец ®

Стаж: 5 лет 9 месяцев

Сообщений: 361

WWE Monday Night Raw 2012/05/14
Год выпуска: 2012
Вид спорта: Рестлинг
Участники: Звезды WWE
Продолжительность: 01.40.09
Комментарий: профессиональный (многоголосый, закадровый)
Язык комментариев: Русский
Описание: Еженедельный выпуск RAW. Выпуск от 14-го мая 2012 года
Качество: HDTV
Формат: Mр4
Видео кодек: x264 \ AVC
Аудио кодек: MPEG Audio Layer 3
Видео: MPEG4 Video (H264), 704x400, 29.97fps, 1 427 Kbps
Аудио: MPEG Audio Layer 3, 48000Hz, 128 Kbps

MediaInfo

General
Format : MPEG-4
Format profile : Base Media
Codec ID : isom
File size : 1.09 GiB
Duration : 1h 40mn
Overall bit rate : 1 558 Kbps
Encoded date : UTC 2012-05-14 17:35:00
Tagged date : UTC 2012-05-14 17:35:00
Writing application : Yamb 2.1.0.0 [http://yamb.unite-video.com]
Video
ID : 1
Format : AVC
Format/Info : Advanced Video Codec
Format profile : [email protected]
Format settings, CABAC : Yes
Format settings, ReFrames : 4 frames
Codec ID : avc1
Codec ID/Info : Advanced Video Coding
Duration : 1h 40mn
Bit rate : 1 427 Kbps
Maximum bit rate : 2 497 Kbps
Width : 704 pixels
Height : 400 pixels
Display aspect ratio : 16:9
Frame rate mode : Constant
Frame rate : 29.970 fps
Color space : YUV
Chroma subsampling : 4:2:0
Bit depth : 8 bits
Scan type : Progressive
Bits/(Pixel*Frame) : 0.169
Stream size : 1 022 MiB (92%)
Writing library : x264 core 122 r2184 5c85e0a
Encoding settings : cabac=1 / ref=5 / deblock=1:0:0 / analyse=0x3:0x113 / me=umh / subme=9 / psy=1 / psy_rd=1.00:0.00 / mixed_ref=1 / me_range=16 / chroma_me=1 / trellis=1 / 8x8dct=1 / cqm=0 / deadzone=21,11 / fast_pskip=1 / chroma_qp_offset=-2 / threads=12 / sliced_threads=0 / nr=0 / decimate=1 / interlaced=0 / bluray_compat=0 / constrained_intra=0 / bframes=3 / b_pyramid=1 / b_adapt=2 / b_bias=0 / direct=3 / weightb=1 / open_gop=0 / weightp=2 / keyint=300 / keyint_min=30 / scenecut=40 / intra_refresh=0 / rc_lookahead=40 / rc=crf / mbtree=1 / crf=19.0 / qcomp=0.60 / qpmin=0 / qpmax=69 / qpstep=4 / vbv_maxrate=1500 / vbv_bufsize=1450 / crf_max=0.0 / nal_hrd=none / ip_ratio=1.40 / aq=1:1.00
Encoded date : UTC 2011-09-08 11:43:25
Tagged date : UTC 2012-05-14 17:39:26
Audio
ID : 2
Format : MPEG Audio
Format version : Version 1
Format profile : Layer 3
Mode : Joint stereo
Mode extension : MS Stereo
Codec ID : 6B
Duration : 1h 40mn
Bit rate mode : Constant
Bit rate : 128 Kbps
Maximum bit rate : 132 Kbps
Channel(s) : 2 channels
Sampling rate : 48.0 KHz
Compression mode : Lossy
Stream size : 91.7 MiB (8%)
Encoded date : UTC 2012-05-14 17:39:20
Tagged date : UTC 2012-05-14 17:39:26

Kaрд

CM Punk & Santino Marella vs. Daniel Bryan & Cody Rhodes
Beth Phoenix vs. Alicia Fox
Kane vs. Big Show
Brodus Clay, Kofi Kingston & R-Truth vs. Dolph Ziggler, Jack Swagger & The Miz
Chris Jericho vs. Randy Orton

Скриншоты

Создавать темы 17-Май-2012 21:14

[Профиль]  [ЛС] 

rey mysterio

Стаж: 5 лет 10 месяцев

Сообщений: 164

Спс Спартанец +1))

Создавать темы 17-Май-2012 23:53

[Профиль]  [ЛС] 

Спартанец ®

Стаж: 5 лет 9 месяцев

Сообщений: 361

Не за что Рэй )

Создавать темы 18-Май-2012 00:08

[Профиль]  [ЛС] 

rey mysterio

Стаж: 5 лет 10 месяцев

Сообщений: 164

давай на ночь оставь скачаю буду раздавать тоже

Создавать темы 18-Май-2012 00:33

[Профиль]  [ЛС] 

AzizRES

Стаж: 7 лет 2 месяца

Сообщений: 10

Спартанец, dayte skorost please :))

Создавать темы 18-Май-2012 16:43

[Профиль]  [ЛС] 

Спартанец ®

Стаж: 5 лет 9 месяцев

Сообщений: 361

Сори вчера проблемы были с электроэнергией из за грозы. Сегодня оставлю на ночь )

Создавать темы 19-Май-2012 01:53

[Профиль]  [ЛС] 

ixtish90

Стаж: 6 лет 8 месяцев

Сообщений: 3

FAYTE RAZDACHA

Создавать темы 19-Май-2012 21:22

[Профиль]  [ЛС] 

aaaaa

Стаж: 5 лет 9 месяцев

Сообщений: 64

бЛИн почему биг шоу уволили?(((

Создавать темы 20-Май-2012 23:14

[Профиль]  [ЛС] 

Kroys

Стаж: 6 лет 1 месяц

Сообщений: 187

Симпатии: 1

бЛИн почему биг шоу уволили?(((
да это обидно ! но я уверен с новым Генеральным Мененджером, Биг Шоу вернётся!!! СПАРТАНЕЕЕЕЕЦ ЖДЁМ OVER THE LIMIT !!!

Создавать темы 21-Май-2012 02:46

[Профиль]  [ЛС] 

XpuC-team

Стаж: 5 лет 5 месяцев

Сообщений: 29

народ качайте это видео, просто супер!!!!!

Создавать темы 22-Июл-2012 22:45

[Профиль]  [ЛС] 
Показать сообщения:    
Ответить на тему

Текущее время: 20-Ноя 07:19

Часовой пояс: UTC + 5



Вы не можете начинать темы
Вы не можете отвечать на сообщения
Вы не можете редактировать свои сообщения
Вы не можете удалять свои сообщения
Вы не можете голосовать в опросах
Вы не можете прикреплять файлы к сообщениям
Вы не можете скачивать файлы