Прощщальные моменты Пепа Гвардиолы с Ноу Кампом и болельщиками Барселоны [2012 г., Футбол, HDTVRip]

Ответить на тему
 

flavio ®

Стаж: 5 лет 10 месяцев

Сообщений: 10

Прощщальные моменты Пепа Гвардиолы с Ноу Кампом и болельщиками Барселоны
Год выпуска: 2012
Вид спорта: Футбол
Продолжительность: 00:03:42
Комментарий: отсутствует-Описание: Пеп Гвардиола уходит из Барселоны.-Доп. информация: Последняя игра для него будет в финале против Атлетика из Бильбао в рамках кубка короля-Качество: HDTVRip
Формат: AVI
Видео кодек: XviD
Аудио кодек: MP3
Видео: 756x426 (16/9), 29.976 fps, 2440 Kbps
Аудио: 48.0 KHz, 2 ch, 256 Kbps

MediaInfo

Format : AVI
Format/Info : Audio Video Interleave
File size : 71.7 MiB
Duration : 3mn 42s
Overall bit rate : 2 709 Kbps
Writing application : Lavf52.73.0
Video #0
ID : 0
Format : xvid
Codec ID : xvid
Duration : 3mn 41s
Bit rate : 2 440 Kbps
Width : 756 pixels
Height : 426 pixels
Display aspect ratio : 16:9
Frame rate : 29.970 fps
Bits/(Pixel*Frame) : 0.253
Stream size : 64.6 MiB (90%)
Audio #1
ID : 1
Format : MPEG Audio
Format version : Version 1
Format profile : Layer 3
Mode : Joint stereo
Codec ID : 55
Codec ID/Hint : MP3
Duration : 3mn 42s
Bit rate mode : Constant
Bit rate : 256 Kbps
Channel(s) : 2 channels
Sampling rate : 48.0 KHz
Compression mode : Lossy
Stream size : 6.78 MiB (9%)
Alignment : Aligned on interleaves
Interleave, duration : 24 ms (0.72 video frame)
Writing library : LAME3.98.4

Скриншоты






Последний раз редактировалось: flavio (2012-05-28 22:30), всего редактировалось 4 раз(а)

Создавать темы 17-Май-2012 22:39

[Профиль]  [ЛС] 

Dilik91

Стаж: 7 лет

Сообщений: 60

Симпатии: 1

Жаль что он ушёл(

Создавать темы 17-Май-2012 22:58

[Профиль]  [ЛС] 

Pendalf

Стаж: 6 лет 5 месяцев

Сообщений: 416

Симпатии: 34

flavio, Вам нужно заполнить тех. данные, например:
Качество: HDRip
Формат: AVI
Видео кодек: XviD
Аудио кодек: MP3
Видео: 656x368 (16/9), 25.000 fps, 1 193 Kbps (0.198 bit/pixel)
Аудио: 48.0 KHz, 2 ch, 128 Kbps
-Залейте, как минимум, три скриншота с источника (Ссылка у меня в подписи)

Создавать темы 18-Май-2012 01:02

[Профиль]  [ЛС] 

flavio ®

Стаж: 5 лет 10 месяцев

Сообщений: 10

Всё???

Создавать темы 21-Май-2012 00:23

[Профиль]  [ЛС] 

Pendalf

Стаж: 6 лет 5 месяцев

Сообщений: 416

Симпатии: 34

скриншоты должны быть в разрешении, указанном в тех. данных!

Создавать темы 21-Май-2012 08:32

[Профиль]  [ЛС] 

flavio ®

Стаж: 5 лет 10 месяцев

Сообщений: 10

Тогда вообще удали !

Создавать темы 21-Май-2012 11:09

[Профиль]  [ЛС] 
Показать сообщения:    
Ответить на тему

Текущее время: 25-Ноя 01:28

Часовой пояс: UTC + 5



Вы не можете начинать темы
Вы не можете отвечать на сообщения
Вы не можете редактировать свои сообщения
Вы не можете удалять свои сообщения
Вы не можете голосовать в опросах
Вы не можете прикреплять файлы к сообщениям
Вы не можете скачивать файлы