Драгоценности Эммануэль/Emmanuelle 2000: Jewel of Emmanuelle (Джилл Хэйуорт) [2000 г., мелодрама, приключение, SuperTS]

Страницы :  1, 2, 3  След.

Ответить на тему
 

janrok ®

Стаж: 5 лет 5 месяцев

Сообщений: 290

Симпатии: 27

Драгоценности Эммануэль ® Emmanuelle 2000: Jewel of Emmanuelle
Год выпуска: 2000
Страна: США
Жанр: мелодрама, приключение
Продолжительность1:24:53
Перевод:профессиональный (двухголосный) --Режиссер: Джилл Хэйуорт
В ролях: Холли Симпсон, Шона О Брайэн, DJ Уэст,Дэнни Пейп, Роберт Донован, Хершел Сэвадж, Дэниэл Андерсон.
Премьера в мире:1декабря 2000
Описание:На этот раз Эммануэль кажется, что за ней следят, но таинственный незнакомец вдруг исчез так же, как и появился. На всякий случай Эммануэль уезжает из города, ведь сегодня она должна встретится с неким господином Бекасом и получить от него бриллиант. Все эти события связанны между собой и дальнейшее не предсказуемо.-
Качество:SuperTS
Формат: AVI
Видео кодек: DIVX
Аудио кодек: mp3
ВидеоДлительность: 01:24:53
Кодек: MPEG-4 Visual
Кодек/ID: DIVX
Размеры изображения: 512 x 384 (4:3)
Частота кадров: 25.000 fps
Размер потока: 557 MiB (86%)
Битрейт: 917 Kbps
Цветовое пространство: YUV
Тип развёртки: Progressive
Bits/(Pixel*Frame): 0.187
Глубина пикселя: 8 bits

АудиоДлительность: 01:24:53.224
Кодек: MPEG Audio
Кодек/ID: 55
Частота дискретизации: 44.1 KHz
Каналы: 2 channels
Битрейт: 144 Kbps
Тип битрейта: Variable
Размер потока: 84.7 MiB (13%)

Скриншоты



Последний раз редактировалось: janrok (2012-05-25 16:04), всего редактировалось 5 раз(а)

Создавать темы 18-Май-2012 17:53

[Профиль]  [ЛС] 

jaska-3d

Стаж: 5 лет 8 месяцев

Сообщений: 250

Симпатии: 25

janrok ® так держать !!! остальные фильмы Эммануэль залей на tas-ix

Создавать темы 18-Май-2012 18:33

[Профиль]  [ЛС] 

janrok ®

Стаж: 5 лет 5 месяцев

Сообщений: 290

Симпатии: 27

всем кто пишет в личку что фильм очень познавательный, я это и сам знаю))))

Создавать темы 18-Май-2012 18:39

[Профиль]  [ЛС] 

jaswik

Стаж: 6 лет 9 месяцев

Сообщений: 84

Симпатии: 2

наверно закроют ))

Создавать темы 18-Май-2012 18:40

[Профиль]  [ЛС] 

jaska-3d

Стаж: 5 лет 8 месяцев

Сообщений: 250

Симпатии: 25

наверно закроют ))
Неа, не закроют !!!

Создавать темы 18-Май-2012 19:39

[Профиль]  [ЛС] 

Max

Стаж: 6 лет 9 месяцев

Сообщений: 70

Симпатии: 2

ух как налетели=)

Создавать темы 18-Май-2012 22:53

[Профиль]  [ЛС] 

janrok ®

Стаж: 5 лет 5 месяцев

Сообщений: 290

Симпатии: 27

ух как налетели=)
да просто аншлаг какой та вроде бы фильм не кассовый а тут на расхват!

Создавать темы 18-Май-2012 23:22

[Профиль]  [ЛС] 

alx777

Стаж: 5 лет 6 месяцев

Сообщений: 87

Симпатии: 8

Фильмы подобного жанра,всегда были на расхват..

Создавать темы 18-Май-2012 23:25

[Профиль]  [ЛС] 

janrok ®

Стаж: 5 лет 5 месяцев

Сообщений: 290

Симпатии: 27

спасибо всем скачавшим - рейтинг побит фильм номинирован на премию самый скачиваемый не проверенный фильм )))))

Создавать темы 19-Май-2012 21:04

[Профиль]  [ЛС] 

Mixer City

Стаж: 6 лет 8 месяцев

Сообщений: 754

Симпатии: 63

janrok, качество далеко от DVDRip-а.

Создавать темы 20-Май-2012 22:32

[Профиль]  [ЛС] 

janrok ®

Стаж: 5 лет 5 месяцев

Сообщений: 290

Симпатии: 27

janrok, качество далеко от DVDRip-а.
ну остановимся на SuperTS а так я не в курсе какой источник у этого материала пиратка 2003года но Российская есть даже прокатное удостоверение от 23,09,2003 выданное Мин.культуры РФ

Создавать темы 20-Май-2012 23:34

[Профиль]  [ЛС] 

рыжий

Стаж: 7 лет 3 месяца

Сообщений: 169

Симпатии: 130

и так, господа и дамы, если таковые есть. еще слово мимо темы, закроем и снесем релиз не взирая на популярность. холивар неуместен в целом, так что обменивайтесь колкостями в другой плоскости вездесущего интернета :)с уважением, рыжий

Создавать темы 21-Май-2012 10:17

[Профиль]  [ЛС] 

Топик был перенесен из форума Зарубежное кино в форум CamRip\Telesync\SATRip\TVRip

Mixer City

Создавать темы 21-Май-2012 17:37

 

Топик был перенесен из форума CamRip\Telesync\SATRip\TVRip в форум CamRip\Telesync\SATRip\TVRip

Pendalf

Создавать темы 21-Май-2012 18:38

 

janrok ®

Стаж: 5 лет 5 месяцев

Сообщений: 290

Симпатии: 27

121скачало! ну наверное покину раздачу, релиз 100% удачный.
skyline "зарегистрирован 10 дней назад и уже 180 раз скачан)))"
это очень очень интересный и позновательный фильм)))))

Создавать темы 23-Май-2012 23:53

[Профиль]  [ЛС] 
Показать сообщения:    
Ответить на тему

Текущее время: 24-Авг 10:05

Часовой пояс: UTC + 5



Вы не можете начинать темы
Вы не можете отвечать на сообщения
Вы не можете редактировать свои сообщения
Вы не можете удалять свои сообщения
Вы не можете голосовать в опросах
Вы не можете прикреплять файлы к сообщениям
Вы не можете скачивать файлы