WWE Friday Night Smackdown 2012/05/18 [2012 г., Рестлинг, HDTV]

Страницы :  1, 2  След.

Ответить на тему
 

Спартанец ®

Стаж: 5 лет 7 месяцев

Сообщений: 361

WWE Friday Night Smackdown 2012/05/18
Год выпуска: 2012
Вид спорта: Рестлинг
Участники: Звезды WWE
Продолжительность: 01.17.24
Комментарий: профессиональный (многоголосый, закадровый)
Язык комментариев: Русский
Описание: Один из пятничных вечеров в Smackdown. Выпуск от 11-го мая 2012 года
Качество: HDTV
Формат: Mр4
Видео кодек: x264/AVC
Аудио кодек: Dolby AC3
Видео: MPEG4 Video (H264),704x400, 29.97fps, 1 438 Kbps
Аудио: Dolby AC3, 48000Hz, stereo, 192 Kbps

Скриншоты

Кард

Non-Title Match: R Truth and Kofi Kingston © vs. Titus O'Neil and Darren Young
Zack Ryder vs. Daniel Bryan
Non-Title Match: CM Punk © vs. Kane
Non-Title Champion vs. Champion Match: Santino © vs. Cody Rhodes ©
Non-Title Match: Sheamus © vs. Randy Orton

MediaInfo

General
Format : MPEG-4
Format profile : Base Media
Codec ID : isom
File size : 1.03 GiB
Duration : 1h 30mn
Overall bit rate : 1 633 Kbps
Encoded date : UTC 2012-05-17 21:02:28
Tagged date : UTC 2012-05-17 21:02:28
Writing application : Yamb 2.1.0.0 [http://yamb.unite-video.com]
Video
ID : 1
Format : AVC
Format/Info : Advanced Video Codec
Format profile : [email protected]
Format settings, CABAC : Yes
Format settings, ReFrames : 4 frames
Codec ID : avc1
Codec ID/Info : Advanced Video Coding
Duration : 1h 30mn
Bit rate : 1 438 Kbps
Maximum bit rate : 2 476 Kbps
Width : 704 pixels
Height : 400 pixels
Display aspect ratio : 16:9
Frame rate mode : Constant
Frame rate : 29.970 fps
Color space : YUV
Chroma subsampling : 4:2:0
Bit depth : 8 bits
Scan type : Progressive
Bits/(Pixel*Frame) : 0.170
Stream size : 929 MiB (88%)
Writing library : x264 core 122 r2184 5c85e0a
Encoding settings : cabac=1 / ref=5 / deblock=1:0:0 / analyse=0x3:0x113 / me=umh / subme=9 / psy=1 / psy_rd=1.00:0.00 / mixed_ref=1 / me_range=16 / chroma_me=1 / trellis=1 / 8x8dct=1 / cqm=0 / deadzone=21,11 / fast_pskip=1 / chroma_qp_offset=-2 / threads=12 / sliced_threads=0 / nr=0 / decimate=1 / interlaced=0 / bluray_compat=0 / constrained_intra=0 / bframes=3 / b_pyramid=1 / b_adapt=2 / b_bias=0 / direct=3 / weightb=1 / open_gop=0 / weightp=2 / keyint=300 / keyint_min=30 / scenecut=40 / intra_refresh=0 / rc_lookahead=40 / rc=crf / mbtree=1 / crf=19.0 / qcomp=0.60 / qpmin=0 / qpmax=69 / qpstep=4 / vbv_maxrate=1500 / vbv_bufsize=1450 / crf_max=0.0 / nal_hrd=none / ip_ratio=1.40 / aq=1:1.00
Encoded date : UTC 2011-09-08 11:43:25
Tagged date : UTC 2012-05-17 21:04:25
Audio
ID : 2
Format : AC-3
Format/Info : Audio Coding 3
Mode extension : CM (complete main)
Codec ID : ac-3
Duration : 1h 30mn
Bit rate mode : Constant
Bit rate : 192 Kbps
Channel(s) : 2 channels
Channel positions : Front: L R
Sampling rate : 48.0 KHz
Bit depth : 16 bits
Compression mode : Lossy
Stream size : 124 MiB (12%)
Encoded date : UTC 2012-05-17 21:03:48
Tagged date : UTC 2012-05-17 21:04:25

Создавать темы 20-Май-2012 09:43

[Профиль]  [ЛС] 

RokC

Стаж: 5 лет 8 месяцев

Сообщений: 56

УУРРРРАА Джони УВОООООЛЯЯЯТТ дай бог

Создавать темы 20-Май-2012 11:31

[Профиль]  [ЛС] 

Спартанец ®

Стаж: 5 лет 7 месяцев

Сообщений: 361

Похоже на то...но )) Что-то мне подсказывает, что, что-то будет не так в их с Синой матче )) Не такой Лоуринайтис человек, что бы не придумать подлянку какую-нибудь )) Хеппи энды, только в фильмах бывают ))

Создавать темы 20-Май-2012 11:45

[Профиль]  [ЛС] 

Kroys

Стаж: 5 лет 11 месяцев

Сообщений: 187

Симпатии: 1

да полюбэ там половина RAW и SmackDown'a повылазиет , только сина за ринг вылезет и ппц будет )

Создавать темы 20-Май-2012 14:09

[Профиль]  [ЛС] 

Спартанец ®

Стаж: 5 лет 7 месяцев

Сообщений: 361

Не вылезут, там у них договор будет - кто вмешается, того отстраняют )) И все же, Лоуринайтис что - нибудь придумает ))

Создавать темы 20-Май-2012 16:16

[Профиль]  [ЛС] 

Kroys

Стаж: 5 лет 11 месяцев

Сообщений: 187

Симпатии: 1

да вымагает меня он , я просто пропустил как Triple H с поста этого ушёл , в то время не смотрел :(

Создавать темы 20-Май-2012 18:19

[Профиль]  [ЛС] 

rey mysterio

Стаж: 5 лет 8 месяцев

Сообщений: 164

СПС)) +1

Создавать темы 21-Май-2012 12:11

[Профиль]  [ЛС] 

AnimeFonaT

Стаж: 5 лет 8 месяцев

Сообщений: 30

Сина проиграл Че за Х ***** Залейти плис видео очень хочу посмареть

Создавать темы 21-Май-2012 14:57

[Профиль]  [ЛС] 

AnimeFonaT

Стаж: 5 лет 8 месяцев

Сообщений: 30

Джон Лауринайтис победил Джона Сину http://ru.wikipedia.org/wiki/Over_the_Limit_(2012)

Создавать темы 21-Май-2012 14:57

[Профиль]  [ЛС] 

rey mysterio

Стаж: 5 лет 8 месяцев

Сообщений: 164

Это чо прикол штоли?

Создавать темы 21-Май-2012 16:34

[Профиль]  [ЛС] 

DOBER_

Стаж: 5 лет 8 месяцев

Сообщений: 56

Симпатии: 1

Качество огонь.Спасибо за релиз

Создавать темы 21-Май-2012 18:10

[Профиль]  [ЛС] 

Kroys

Стаж: 5 лет 11 месяцев

Сообщений: 187

Симпатии: 1

вы чё прикалываетесь ?? сина победил?

Создавать темы 21-Май-2012 18:51

[Профиль]  [ЛС] 

AnimeFonaT

Стаж: 5 лет 8 месяцев

Сообщений: 30

Не я сам в шоке вики не обманывает но просто http://ru.wikipedia.org/wiki/Over_the_Limit_(2012) хз может ошибка у вики Залейте плисс Овер Лимит стал интригующим

Создавать темы 21-Май-2012 19:54

[Профиль]  [ЛС] 

AnimeFonaT

Стаж: 5 лет 8 месяцев

Сообщений: 30

Епать (извините модеры) После завершения Эфира Сина еще 5 минут не мог поднятся но потом встал и шатаясь ушел с Ринга А вот ссылка на скрин (ПС не смог скопировать текст (не копируется) кароч (Что стало с Лоринайтсом ХЕ ХЕ ХЕ
http://Soft-Portal.orca.uz/file_storage/sections/blog_18/userfiles/images/1.JPG

Создавать темы 21-Май-2012 20:02

[Профиль]  [ЛС] 

RokC

Стаж: 5 лет 8 месяцев

Сообщений: 56

ребята кажись Биг Шоу (недавно уволенный а значит уже не суперстар) для того чтобы его оставили на рестленге атаковал Сину

Создавать темы 21-Май-2012 21:25

[Профиль]  [ЛС] 
Показать сообщения:    
Ответить на тему

Текущее время: 20-Сен 07:16

Часовой пояс: UTC + 5



Вы не можете начинать темы
Вы не можете отвечать на сообщения
Вы не можете редактировать свои сообщения
Вы не можете удалять свои сообщения
Вы не можете голосовать в опросах
Вы не можете прикреплять файлы к сообщениям
Вы не можете скачивать файлы