Черная Эммануэль. Путешествие вокруг света / Emanuelle. Perche violenza alle donne?(Джо Д.Амато) [1977 г., мелодрама, приключение, DVDRip]

Ответить на тему
 

janrok ®

Стаж: 5 лет 7 месяцев

Сообщений: 290

Симпатии: 27

Черная Эммануэль. Путешествие вокруг света / Emanuelle nera. Perche violenza alle donne?
Год выпуска: 1977
Страна: Италия
Жанр: ужасы, триллер, драма, мелодрама, приключения
Продолжительность1:33:20
Перевод:профессиональный (двухголосный) --Режиссер: Джо Д.Амато.
В ролях: Лаура Гемсер. Карин Шуберт. Марино Мазе. Джанни Маччия. Паола Майолини.
Премьера в мире:16сентября 1977
Описание:Молодая, очаровательная и невероятно сексуальная девушка Эммануэль работает фотографом в редакции одного журнала.
По работе ей приходится много путешествовать, чтобы собирать материалы для своих «горячих» репортажей. Из-за склонности к авантюризму она постоянно попадает в различные пикантные ситуации.

Качество: DVDRip
Формат: AVI
Видео кодек: XviD
Аудио кодек: mp3
ВидеоДлительность: 01:33:20
Кодек: MPEG-4 Visual
Кодек/Профиль: Advanced [email protected]
Кодек/ID: XVID
Размеры изображения: 720 x 576 (16:9)
Частота кадров: 25.000 fps
Размер потока: 1.16 GiB (93%)
Битрейт: 1 776 Kbps
Стандарт: PAL
Цветовое пространство: YUV
Тип развёртки: Progressive
Bits/(Pixel*Frame): 0.171
Глубина пикселя: 8 bits
Библиотека кодирования: XviD 1.2.1 (UTC 2008-12-04)

АудиоДлительность: 01:33:20.601
Кодек: MPEG Audio
Кодек/ID: 55
Частота дискретизации: 44.1 KHz
Каналы: 2 channels
Битрейт: 128 Kbps
Тип битрейта: Constant
Размер потока: 85.5 MiB (7%)

Скриншоты



Последний раз редактировалось: janrok (2012-05-21 20:56), всего редактировалось 2 раз(а)

Создавать темы 21-Май-2012 00:59

[Профиль]  [ЛС] 

janrok ®

Стаж: 5 лет 7 месяцев

Сообщений: 290

Симпатии: 27

это прон да?
нет однозначно!

Создавать темы 21-Май-2012 01:01

[Профиль]  [ЛС] 

belol

Стаж: 6 лет 10 месяцев

Сообщений: 45

Да вы что? Это про любофф! Дайте ходу =)

Создавать темы 21-Май-2012 12:26

[Профиль]  [ЛС] 

janrok ®

Стаж: 5 лет 7 месяцев

Сообщений: 290

Симпатии: 27

с 12-30 по 13-30 сбавлю скорость потом раздаю по максимуму

Создавать темы 21-Май-2012 12:40

[Профиль]  [ЛС] 

victor0778

Стаж: 6 лет 8 месяцев

Сообщений: 1670

Симпатии: 142

Жанр: ужасы, триллер, драма, мелодрама, приключения, скриншоты по указаным размерам залейте

Создавать темы 21-Май-2012 20:07

[Профиль]  [ЛС] 

janrok ®

Стаж: 5 лет 7 месяцев

Сообщений: 290

Симпатии: 27

проверяйте, уже все исправил. "если не проверят" то через денек другой удалю этот релиз.

Создавать темы 23-Май-2012 21:02

[Профиль]  [ЛС] 

jaska-3d

Стаж: 5 лет 10 месяцев

Сообщений: 250

Симпатии: 25

Биг респектоз +1

Создавать темы 24-Май-2012 02:16

[Профиль]  [ЛС] 

mp1988

Стаж: 6 лет 8 месяцев

Сообщений: 607

Симпатии: 971

а куда делся еще один фильм из серии Эмануэль

Создавать темы 25-Май-2012 08:59

[Профиль]  [ЛС] 

janrok ®

Стаж: 5 лет 7 месяцев

Сообщений: 290

Симпатии: 27

а куда делся еще один фильм из серии Эмануэль
в раздели камрип и тиси качество подкачало!!!

Создавать темы 25-Май-2012 18:03

[Профиль]  [ЛС] 

LONDON

Стаж: 6 лет 6 месяцев

Сообщений: 154

Симпатии: 3

встаньте на раздачу

Создавать темы 14-Фев-2013 11:44

[Профиль]  [ЛС] 

al777

Стаж: 5 лет 1 месяц

Сообщений: 20

Жанр: ужасы, триллер, драма, мелодрама, приключения
Жанр: ужасы, триллер, драма, мелодрама, приключения
Кто смотрел отпишитесь очень страшный фильм?
:P

Создавать темы 14-Фев-2013 12:16

[Профиль]  [ЛС] 

KoT

Стаж: 6 лет 9 месяцев

Сообщений: 101

Симпатии: 1

там секас )

Создавать темы 14-Фев-2013 12:36

[Профиль]  [ЛС] 

X-MART

Стаж: 2 года 1 месяц

Сообщений: 21

Симпатии: 14

плиз, встаньте кто-нибудь на раздачу дайте скачать

Создавать темы 07-Окт-2015 01:27

[Профиль]  [ЛС] 
Показать сообщения:    
Ответить на тему

Текущее время: 22-Окт 20:44

Часовой пояс: UTC + 5



Вы не можете начинать темы
Вы не можете отвечать на сообщения
Вы не можете редактировать свои сообщения
Вы не можете удалять свои сообщения
Вы не можете голосовать в опросах
Вы не можете прикреплять файлы к сообщениям
Вы не можете скачивать файлы