Неоспоримый 2 / Undisputed 2: Last Man Standing (Айзек Флорентайн / Isaac Florentine) [2006 г., Криминал, спорт, драма, BDRip 720p] MVO + Original ENG

Страницы :  1, 2  След.

Ответить на тему
 

Дмитриев ®

Стаж: 7 лет 2 месяца

Сообщений: 139

Симпатии: 12

Неоспоримый 2 / Undisputed 2: Last Man Standing
Год выпуска: 2006
Страна: США
Жанр: Криминал, спорт, драма
Продолжительность: 01:37:36
Перевод: Профессиональный (многоголосый, закадровый)
Режиссер: Айзек Флорентайн / Isaac Florentine
В ролях: Скотт Эдкинс, Майкл Джей Уайт, Бен Кросс, Эли Данкер, Марк Иванир, Кен Лернер, Дэйзи Лэнг, Сильвио Шимач, Ивайло Герасков, Валентин Ганев
Описание: Бывший чемпион мира по боксу во время визита в Россию случайно попадает в криминальную разборку, связанную с высшими правительственными чинами и против него фабрикуется ложное дело. Дорога домой будет долгой и трудной, проходящей через суровую российскую тюрьму…
Качество: BDRip 720p (исходник Blu-Ray 1080p)
Формат: MKV
Видео кодек: x264 / AVC
Аудио кодек: AC3, DTS
Видео: MPEG4 Video (H264) 1280x688 23.97fps 7167 Kbps
Аудио #1:|RUS| Dolby AC3 48000Hz 6ch 448 Kbps / MVO
Аудио #2:|ENG| DTS 48000Hz 6ch 1510 Kbps / оригинал

Показать Медиа Инфо

Format : Matroska
Format version : Version 2
File size : 6.35 GiB
Duration : 1h 37mn
Overall bit rate : 9 310 Kbps
Movie name : Неоспоримый 2 / Undisputed II: Last Man Standing (2006) BDRip 720p by nextDred
Encoded date : UTC 2012-01-23 16:06:35
Writing application : mkvmerge v5.2.0 ('I can't explain') built on Dec 18 2011 18:12:03
Writing library : libebml v1.2.3 + libmatroska v1.3.0
Video
ID : 1
Format : AVC
Format/Info : Advanced Video Codec
Format profile : [email protected]
Format settings, CABAC : Yes
Format settings, ReFrames : 9 frames
Codec ID : V_MPEG4/ISO/AVC
Duration : 1h 37mn
Bit rate : 7 167 Kbps
Width : 1 280 pixels
Height : 688 pixels
Display aspect ratio : 1.860
Frame rate : 23.976 fps
Color space : YUV
Chroma subsampling : 4:2:0
Bit depth : 8 bits
Scan type : Progressive
Bits/(Pixel*Frame) : 0.339
Stream size : 4.89 GiB (77%)
Title : Undisputed II: Last Man Standing (2006) BDRip 720p by nextDred
Writing library : x264 core 116 r2074 2641b9e
Encoding settings : cabac=1 / ref=9 / deblock=1:-2:-1 / analyse=0x3:0x133 / me=tesa / subme=9 / psy=1 / psy_rd=1.00:0.00 / mixed_ref=1 / me_range=32 / chroma_me=1 / trellis=2 / 8x8dct=1 / cqm=0 / deadzone=21,11 / fast_pskip=0 / chroma_qp_offset=-2 / threads=12 / sliced_threads=0 / nr=0 / decimate=1 / interlaced=0 / bluray_compat=0 / constrained_intra=0 / bframes=8 / b_pyramid=2 / b_adapt=2 / b_bias=0 / direct=3 / weightb=1 / open_gop=0 / weightp=2 / keyint=250 / keyint_min=23 / scenecut=40 / intra_refresh=0 / rc=cqp / mbtree=0 / qp=20 / ip_ratio=1.40 / pb_ratio=1.30 / aq=0
Language : English
Default : Yes
Forced : No
Audio #1
ID : 2
Format : AC-3
Format/Info : Audio Coding 3
Mode extension : CM (complete main)
Codec ID : A_AC3
Duration : 1h 37mn
Bit rate mode : Constant
Bit rate : 448 Kbps
Channel(s) : 6 channels
Channel positions : Front: L C R, Side: L R, LFE
Sampling rate : 48.0 KHz
Bit depth : 16 bits
Compression mode : Lossy
Stream size : 313 MiB (5%)
Title : MVO
Language : Russian
Default : Yes
Forced : No
Audio #2
ID : 3
Format : DTS
Format/Info : Digital Theater Systems
Codec ID : A_DTS
Duration : 1h 37mn
Bit rate mode : Constant
Bit rate : 1 510 Kbps
Channel(s) : 6 channels
Channel positions : Front: L C R, Side: L R, LFE
Sampling rate : 48.0 KHz
Bit depth : 24 bits
Compression mode : Lossy
Stream size : 1.03 GiB (16%)
Title : ENG
Language : English
Default : No
Forced : No
Menu
00:00:00.000 : en:00:00:00.000
00:12:48.893 : en:00:12:48.893
00:20:02.118 : en:00:20:02.118
00:26:09.067 : en:00:26:09.067
00:30:53.351 : en:00:30:53.351
00:39:56.936 : en:00:39:56.936
00:48:14.058 : en:00:48:14.058
00:52:31.648 : en:00:52:31.648
00:58:56.533 : en:00:58:56.533
01:03:05.907 : en:01:03:05.907
01:11:07.305 : en:01:11:07.305
01:15:51.464 : en:01:15:51.464
01:19:19.755 : en:01:19:19.755
01:21:45.567 : en:01:21:45.567
01:28:16.625 : en:01:28:16.625
01:34:01.219 : en:01:34:01.219

Показать Скриншоты



Создавать темы 22-Май-2012 15:18

[Профиль]  [ЛС] 

Топик был перенесен из форума HD-AVC в форум Зарубежное кино

Pendalf

Создавать темы 22-Май-2012 16:41

 

Luke

Стаж: 6 лет 7 месяцев

Сообщений: 31

Дмитриев
Встань пожалуйста на раздачу.

Создавать темы 10-Июн-2012 01:41

[Профиль]  [ЛС] 

GIGABYTE158

Стаж: 5 лет 2 месяца

Сообщений: 71

Симпатии: 13

скорость дайте плиз

Создавать темы 22-Авг-2012 19:01

[Профиль]  [ЛС] 

mara_pro

Стаж: 7 лет 1 месяц

Сообщений: 19

плиз скорость дайте!

Создавать темы 02-Дек-2012 21:56

[Профиль]  [ЛС] 

hamilion

Стаж: 4 года 11 месяцев

Сообщений: 155

Симпатии: 14

скачать реално вообще?

Создавать темы 04-Янв-2013 04:15

[Профиль]  [ЛС] 

nasri91

Стаж: 4 года 7 месяцев

Сообщений: 48

Симпатии: 1

скорость

Создавать темы 12-Фев-2013 07:58

[Профиль]  [ЛС] 

3611029

Стаж: 6 лет 1 месяц

Сообщений: 75

пожалста дайте скорости

Создавать темы 21-Мар-2013 09:10

[Профиль]  [ЛС] 

beg_1294

Стаж: 4 года 7 месяцев

Сообщений: 38

Симпатии: 1

Сиды дайте пожалуйста скорости, уже 3 день и только 10%......

Создавать темы 19-Апр-2013 11:26

[Профиль]  [ЛС] 

andiman

Стаж: 4 года 9 месяцев

Сообщений: 134

Симпатии: 1

А первой части нет? Может кто выложит?

Создавать темы 25-Апр-2013 19:38

[Профиль]  [ЛС] 

stalbek80

Стаж: 4 года 7 месяцев

Сообщений: 28

andiman, Oбсуждению не подлежит / Undisputed (Уолтер Хилл) [2002 г., боевик, драма, криминал, спорт, BDRip] первая часть

Создавать темы 25-Апр-2013 22:31

[Профиль]  [ЛС] 

andiman

Стаж: 4 года 9 месяцев

Сообщений: 134

Симпатии: 1

stalbek80, спасибо.

Создавать темы 28-Апр-2013 10:10

[Профиль]  [ЛС] 

iLoVeTheDiLyOrA

Стаж: 5 лет 7 месяцев

Сообщений: 68

Симпатии: 2

встаньте на раздачу

Создавать темы 20-Июл-2013 15:20

[Профиль]  [ЛС] 

vovik1

Стаж: 4 года 3 месяца

Сообщений: 49

Симпатии: 1

тихо тихо скачаем! к новому году)))новерно

Создавать темы 27-Сен-2013 15:05

[Профиль]  [ЛС] 

nightwish77

Стаж: 5 лет 7 месяцев

Сообщений: 21

Симпатии: 3

как поместить его на диск?

Создавать темы 15-Янв-2014 20:15

[Профиль]  [ЛС] 
Показать сообщения:    
Ответить на тему

Текущее время: 19-Авг 10:26

Часовой пояс: UTC + 5



Вы не можете начинать темы
Вы не можете отвечать на сообщения
Вы не можете редактировать свои сообщения
Вы не можете удалять свои сообщения
Вы не можете голосовать в опросах
Вы не можете прикреплять файлы к сообщениям
Вы не можете скачивать файлы