PPV WWE - 2012.05.20 - Over The Limit 2012 [2012 г., Рестлинг, HDTV]

Страницы :  1, 2, 3  След.

Ответить на тему
 

Спартанец ®

Стаж: 5 лет 8 месяцев

Сообщений: 361

PPV WWE - 2012.05.20 - Over The Limit 2012
Год выпуска: 2012
Вид спорта: Рестлинг
Участники: Звезды WWE
Продолжительность: 02.48.53
Комментарий: профессиональный (многоголосый, закадровый)
Язык комментариев: Русский
Описание: Свежее PPV от WWE - "Over The Limit 2012". Русская версия
Качество: HDTV
Формат: Mр4
Видео кодек: x264 / AVC
Аудио кодек: Dolby AC3
Видео: MPEG4 Video (H264), 704x400, 29.97fps, 1 456 Kbps
Аудио: Dolby AC3, 48000Hz, stereo, 1536kbps, 192 Kbps

MediaInfo

General
Format : MPEG-4
Format profile : Base Media
Codec ID : isom
File size : 1.95 GiB
Duration : 2h 48mn
Overall bit rate : 1 651 Kbps
Encoded date : UTC 2012-05-20 19:32:02
Tagged date : UTC 2012-05-20 19:32:02
Writing application : Yamb 2.1.0.0 [http://yamb.unite-video.com]
Video
ID : 1
Format : AVC
Format/Info : Advanced Video Codec
Format profile : [email protected]
Format settings, CABAC : Yes
Format settings, ReFrames : 4 frames
Codec ID : avc1
Codec ID/Info : Advanced Video Coding
Duration : 2h 48mn
Bit rate : 1 456 Kbps
Maximum bit rate : 2 669 Kbps
Width : 704 pixels
Height : 400 pixels
Display aspect ratio : 16:9
Frame rate mode : Constant
Frame rate : 29.970 fps
Color space : YUV
Chroma subsampling : 4:2:0
Bit depth : 8 bits
Scan type : Progressive
Bits/(Pixel*Frame) : 0.173
Stream size : 1.72 GiB (88%)
Writing library : x264 core 122 r2184 5c85e0a
Encoding settings : cabac=1 / ref=5 / deblock=1:0:0 / analyse=0x3:0x113 / me=umh / subme=9 / psy=1 / psy_rd=1.00:0.00 / mixed_ref=1 / me_range=16 / chroma_me=1 / trellis=1 / 8x8dct=1 / cqm=0 / deadzone=21,11 / fast_pskip=1 / chroma_qp_offset=-2 / threads=12 / sliced_threads=0 / nr=0 / decimate=1 / interlaced=0 / bluray_compat=0 / constrained_intra=0 / bframes=3 / b_pyramid=1 / b_adapt=2 / b_bias=0 / direct=3 / weightb=1 / open_gop=0 / weightp=2 / keyint=300 / keyint_min=30 / scenecut=40 / intra_refresh=0 / rc_lookahead=40 / rc=crf / mbtree=1 / crf=19.0 / qcomp=0.60 / qpmin=0 / qpmax=69 / qpstep=4 / vbv_maxrate=1500 / vbv_bufsize=1450 / crf_max=0.0 / nal_hrd=none / ip_ratio=1.40 / aq=1:1.00
Encoded date : UTC 2011-09-08 11:43:25
Tagged date : UTC 2012-05-20 19:42:28
Audio
ID : 2
Format : AC-3
Format/Info : Audio Coding 3
Mode extension : CM (complete main)
Codec ID : ac-3
Duration : 2h 48mn
Bit rate mode : Constant
Bit rate : 192 Kbps
Channel(s) : 2 channels
Channel positions : Front: L R
Sampling rate : 48.0 KHz
Bit depth : 16 bits
Compression mode : Lossy
Stream size : 232 MiB (12%)
Encoded date : UTC 2012-05-20 19:38:36
Tagged date : UTC 2012-05-20 19:42:28

Кард

Fatal Four-Way for the World Heavyweight Championship
Sheamus vs. Alberto Del Rio vs. Chris Jericho vs. Randy Orton
WWE Divas Championship
Layla vs. Beth Phoenix
WWE Championship
CM Punk vs. Daniel Bryan
Tag team match for the WWE Tag Team Championship
Kofi Kingston & R-Truth vs. Dolph Ziggler & Jack Swagger
60 minute People Power Ironman match
John Cena vs. John Laurinaitis

Скриншоты

Создавать темы 24-Май-2012 21:41

[Профиль]  [ЛС] 

LiX

Стаж: 6 лет 4 месяца

Сообщений: 254

Симпатии: 6

Ура свершилось! А когда можно будет скачать?
И Спартанец огромное спс!!!!!

Создавать темы 24-Май-2012 21:53

[Профиль]  [ЛС] 

Спартанец ®

Стаж: 5 лет 8 месяцев

Сообщений: 361

Не за что :) Стараюсь по скорее выкладывать. Так что, не обессудьте если долго :)

Создавать темы 24-Май-2012 21:54

[Профиль]  [ЛС] 

aaaaa

Стаж: 5 лет 8 месяцев

Сообщений: 64

Cпартанец спасибо)))

Создавать темы 24-Май-2012 22:27

[Профиль]  [ЛС] 

Kroys

Стаж: 6 лет

Сообщений: 187

Симпатии: 1

УРААААААААААААААААААА

Создавать темы 25-Май-2012 00:00

[Профиль]  [ЛС] 

LiX

Стаж: 6 лет 4 месяца

Сообщений: 254

Симпатии: 6

Пожалуйста Спартанец приостанови др закачки и раздай эту а то я походу за 3 дня всё скачаю tx

Создавать темы 25-Май-2012 11:17

[Профиль]  [ЛС] 

NodirAgenT

Стаж: 6 лет 6 месяцев

Сообщений: 204

Ураааааааааааааааааааааааааааааааааа! спс !Спартанец,

_________________
Подпись отключена за нарушение правил форума

Создавать темы 25-Май-2012 13:37

[Профиль]  [ЛС] 

AnimeFonaT

Стаж: 5 лет 9 месяцев

Сообщений: 30

Спартанец Спс Биг

Создавать темы 25-Май-2012 14:13

[Профиль]  [ЛС] 

AnimeFonaT

Стаж: 5 лет 9 месяцев

Сообщений: 30

ребят А малыш лори Капец Хапнул От Сины Сколько там травм ППЦ

Создавать темы 25-Май-2012 16:45

[Профиль]  [ЛС] 

LiX

Стаж: 6 лет 4 месяца

Сообщений: 254

Симпатии: 6

Спартанец, вернись пожалуйста на раздачу!

Создавать темы 25-Май-2012 20:24

[Профиль]  [ЛС] 

Спартанец ®

Стаж: 5 лет 8 месяцев

Сообщений: 361

Парни, я иногда - работаю ))) не могу я сутками раздавать )) Ночью стабильно, плюс на выходных ))

Создавать темы 25-Май-2012 20:40

[Профиль]  [ЛС] 

MarduK

Стаж: 5 лет 9 месяцев

Сообщений: 127

Помогу с раздачей

Создавать темы 25-Май-2012 23:21

[Профиль]  [ЛС] 

AzizRES

Стаж: 7 лет 1 месяц

Сообщений: 10

Spasibo!!!!

Создавать темы 26-Май-2012 01:23

[Профиль]  [ЛС] 

ygapHuK

Стаж: 5 лет 7 месяцев

Сообщений: 153

а что все так радуются?
тоже скачать что ли,ща буду искать место на харде)

Создавать темы 26-Май-2012 15:49

[Профиль]  [ЛС] 

aaaaa

Стаж: 5 лет 8 месяцев

Сообщений: 64

ygapHuK,
конечно качай шоу прекрасное,я не смотрел ну думаю оно будут такимм))

Создавать темы 26-Май-2012 17:26

[Профиль]  [ЛС] 
Показать сообщения:    
Ответить на тему

Текущее время: 20-Окт 12:15

Часовой пояс: UTC + 5



Вы не можете начинать темы
Вы не можете отвечать на сообщения
Вы не можете редактировать свои сообщения
Вы не можете удалять свои сообщения
Вы не можете голосовать в опросах
Вы не можете прикреплять файлы к сообщениям
Вы не можете скачивать файлы